&title=punk bastards
&artist=Sobrem
&first=0.02
&des=Slask
&lv_5=14+
&inote_5=(225)
{4},,,
{24},,,,
{24}6,5,7pp8-5[4:2],,,,,,{4},,,
{4}3b/4b,6b/7b,1xbw5[8:1]b,,
{8}7x<5[8:1],,4z8[4:1],3h[8:3],,,,,
{8}2x>4[8:1],,5s1[4:1],6h[8:3],,,,,
{8}7x-3[8:1],,2V48[4:1],1h[8:3],,,,,
{4}5/6h[4:1],1,4/3h[4:1],8,
{8}2x-5[8:1],,6-2[8:1],7,8-3[8:1]*-5[8:1],,8,,
{8}7x-4[8:1],,3-7[8:1],2,1-6[8:1]*-4[8:1],,1,,
{24}8x,7x,6x,5x,4x,3x,2x,1x,8x,7x,6x,5x,{16}3,4,3,4,3,4,3,4,2h[4:1],,,,5h[4:1],,,,8-4[8:1],,,,,,,,
{16}7,,7,5,6,,6,,{8}3,4,1,6,{8}2h[4:1],4,5,3,6h[4:1],4,3,5,
{16}2,,2,4,3,,3,,{8}6,5,8,3,{12}A7/4h[4:1],E7,E6,A5,,,{16}3,,7,,5,,6,,
{16}2,,2,4,3,,3,,{8}6,5,8,3,{8}7h[4:1],5,4,6,3h[4:1],5,6,4,
{16}7,,7,5,6,,6,,{8}3,4,1,6,{16}3,4,3,4,3,4,3,4,{16}1,2,3,4,5,6,7,8,
{8}1x-5[8:1]/5x,,6-1[8:1],,4,,3,,{8}8-4[8:1]/4,,3-8[8:1],,5,,6,,
{8}3-5[8:1]/7,,6-3[8:1],,2-6[8:1],,8,,{16}7,,3,4,3,,25,,{8}8,3,6,5,
{8}7x-4[8:1],,3-7[8:1],,5,,8,,{8}2-5[8:1],,6-2[8:1],,4,,1,,{16}3,4,3,4,3,4,3,4,2,5,3,6,4>1b[8:1],7,5,8,4xb<7b[8:1],,,,4xb-8b[8:1],,,,4b,,,,,,
{8}7h[8:3]/5,,6,5,4/6h[8:3],,5,4,3/5h[8:3],,4,3,2-4[8:1]/4-8[8:1],,42,,,{16}6x,5,6,5,6,5,6,5,8b,,,,3x,4,3,4,3,4,3,4,1b,,6,,5,,7,,3,,{8}2h[8:3]/4,,3,4,5/3h[8:3],,4,5,6/4h[8:3],,5,6,57,8,3,4,2,
{16}6x,5,6,5,6,5,6,5,8b,,,,3x,4,3,4,3,4,3,4,1b,,,,
{8}7/5h[8:1],6,5h[8:1]/4>1[8:1]b,3,B6f/A6/4b,,,,8,7qq8[8:3]b,3,E2f/D2/7b,,,,,
{8}2/4h[8:1],3,4h[8:1]/5<8[8:1]b,6,B2/E3f/5b,,,,1,2>5-1[8:3]b,6,E7f/B7/2b,,,,,
{8}78,6,54,3,6xpp4pp3b[4:6]/2xh[4:7],,,,,,,,,,,,,,,,
{16}1x,8,1,8,1x,8,1,8,1x,8,1,8,1x,8,1,8,
{32}1,2,3,4,5,6,7,8,1,2,3,4,5,6,7,8,{4}1b/Cf,,
{8}1xV35[4:1],,5qq6[4:1],7h[8:3],,,,,
{8}8xV64[4:1],,4pp3[4:1],2h[8:3],,,,,
{8}1>4[6:1],,6V82[4:1],7h[8:3],,,,,{4}6-1[8:1],2-5[8:1]/6,8-4[8:1]/2,8,
{16}3,4,3,4,3,4,3,4,2,5,2,5,2,5,2,5,4,7,4,7,4,7,4,7,5,6,5,6,5,6,5,6,
{16}1,8,1,7,1,6,1,5,
{32}2x,3,4,5,6,7,8,1,2x/7x-3[8:1],3,4,5,6,7,8,1,(160){8}2bx<4[16:9]b/7bx/Cf,,(195),,(210),,(220),,(225)
{8}6z2[4:6],,,,,,,,,,{12}1h[24:1],,,,,5h[32:1],,,,{8}8q1[4:3],,,,,,,,4V68[4:3],,{12},,3,,,,,,,
{12}2h[12:3],,,3,,2,4,,,51,,,{12}7h[12:3],,,6,,7,5,,,48,,,{8}3,3,5,5,4,4,6,6,{24}15,2,3,
{8}4h[24:7],{12},,6,5,6,3,4,3,5,
{12}2b,4,3,4h[6:1],,1b,4,3,4h[6:1],,8b,4,3,4h[6:1],,7b,4,3,4h[6:1],,6b,4,3,4h[6:1],,7b,4,3,4h[6:1],,8b,4,3,4h[6:1],,1b,4,3,4h[12:4],,,,{12}2,3,4,7,6,5,
{12}3x,3,3,4x,4,4,5x,5,5,6x,6,6,4x,5,4,7x,5,6,2x,4,3,8x,6,7,3qq4[4:2],,,,,,7qq8b[4:2],,,,,,
{8},1,2,3,4,5-1[8:1]b,6,
{8}E7f/B7/5b,,,,,8,7v4-6[8:3]b,3,E2f/D2/7b,,,,,{8}2/4h[8:1],3,4h[8:1]/5<8[8:1]b,6,B2/E3f/5b,,,,1,2V48[8:3]b,5,E7f/B6/2b,,,,,{12}7x,6,5,1x/4x,2,3,{8}4bh[8:7]/D6/E6,,,,,,,2b>8[8:3]b,,,,1w5[8:1]b,,1bx/Cf,,,
{8}7-3[8:1],4h[16:1],7,4h[16:1],2-6[8:1],4h[16:1],2,4h[16:1],8<5[8:1],4h[16:1],8>3[8:1],4h[16:1],8-4[8:1],4h[16:1],8,3,
{8}2-6[8:1],5h[16:1],2,5h[16:1],7-3[8:1],5h[16:1],7,5h[16:1],1>4[8:1],5h[16:1],1<6[8:1],5h[16:1],1-5[8:1],5h[16:1],1,6,
{8}8-4[8:1],3h[16:1],8,3h[16:1],7,3,5,{24}1b,2,3,4,,,8b,1,2,3,,,7b,8,1,2,,,,,,
{16}6,5,6,5,
{8}7-4[8:1],7,3-7[8:1],3,6-1[8:1],6,2-5[8:1],2,8-4[8:1],8,3-8[8:1],3,6,6,{16}1,2,3,4,
{8}6-1[8:1]/5,6,2-6[8:1],2,7,7,3,{24}8b,7,6,5,,,1b,8,7,6,,,2b,1,8,7,,,,,,{16}3,4,3,4,
{8}2-5[8:1],2,6-2[8:1],6,3-8[8:1],3,7-4[8:1],7,1-5[8:1],1,6-1[8:1],6,3,3,{32}8x,7,6,5,4,3,2,1,
{8}8b/Cf,,,,{12}2,3,4,7,6,5,{4}3b/4b,6b/7b,1xbw5[8:1]b,,
{8}7x-5[8:1],,4-7[8:1],2,1-5[8:1],,13,,
{8}2x-4[8:1],,5-2[8:1],7,8-4[8:1],,86,,
{8}7x-4[8:1],,3-7[8:1],2,1-6[8:1]*-4[8:1],,1,,
{16}2,4,2,4,3,5,3,5,4,6,4,6,5,7,5,7,
{16}1,2,3,4,6,5,7,5,8,7,6,5,3,4,2,4,
{16}1,2,3,4,51,6,7,8,{16}15,2,3,4,{24}15,2,3,4,5,6,7b/2bx,3,4,8x,7,6,1x,2,3,7x,6,5,{16}3,4,3,4,2,3,2,3,1b,,5b,,,,3b,,7b,,,,1b/2b,,3b/8b,,,,8b/7b,,6b/1b,,,,{64}3b,4,,,,,,,,2b,4,,,,,,,,,,,,,,6b,5,,,,,,,7b,5,,,,,,,{8},4b/8b,2b/6b,,1b/5b,3b/7b,,
{16}2b,6,1b,5,8b,4,7b,3,8b,,,4b,,,6b/2b,,,,{24},A7,B7,C,B3,2bz6[24:10]/A3f,
