&title=蝴蝶
&artist=瞿子千 ft. 洛天依
&des=星露
&wholebpm=84
&first=0
&lv_4=11.5
&des_4=星露
&inote_4=
(168){2},,,,{1}8x/7x,
{4}1x/2x,,,2xh[1:1]/7xh[1:1],
,,,,,,{2}6/3,
{4}6,5,4,3,
3,4,5,6h[4:5],
,,,,,,,,1/8,
8/1,{2}8<5[4:3]/1>4[4:3],
{4},,,,4>8[2:1],
6<8[4:1],,,1>5[2:1],
6x,,,{2}6h[2:1],
4h[2:1],
5h[2:1],3h[2:1],
{4}5xh[6:1],4h[4:3],,E8,
B7,B6,E6,A5,
4,5,{2}4h[6:1]/5h[6:1],
{1}4xqq4[2:1]*pp4[2:1],
{4}5,4,{12}4h[6:1]/5h[6:1],,,,,6/4,
,,{6}5/3,{12},3h[12:1],,,,{4}2/7,
{2}7h[2:1],1h[2:1],
8h[2:1],2h[2:1],
{4}8x,1qq6[1:1]*pp4[1:1],,,,,,5h[6:1],
4,3/6,{12}7h[4:1]/2h[4:1],,,,,2,
,,{6}1/8,{12},,{4}1h[6:1],8h[6:1],
2,1p4[12:5]/8<5[12:5],{12},,,,,,,,{6}5/4,
{12},6h[3:1]/3h[12:1],,,,{4}2,
{1}8qq6[2:1]/1pp3[2:1],
{4}5/4,6/5,3/4,2>4[4:1],
,5p8<5[1:1],,,,,,4h[6:1],
5,6/3,{12}4/5h[4:1],,,,,3h[2:1],
,,{6}6h[4:1],{12},,{4}4xh[6:1],5h[6:1],
,6/3,{12}7/2,,,,,7h[4:1]/2h[4:1],
,,,,,1h[12:1],,,,{4}1/8,
{12}8-6[4:1]/1-3[4:1],,,,,,,,,,,4/5,
,,{6}6/3,{12},2h[12:1]/7h[12:1],,,,{4}8/1,
Cfh[1:1],E8,B8,B1,
{2}E2,7/1pp1b[2:1],
{4}8,8<6[4:1],,4h[6:1],
5,{12}3/6,,7/2,,,{3}1/8-5[4:1],
{2}1-3[4:1],8x-6[4:1],
{4}3,3h[12:5]/6h[12:5],,,2bx,
{12}2/8,,1h[6:5],,,7h[12:1],,,8h[3:1],
,,,,,2/7,,,6/3,,,3h[2:1]/5pp8[2:1],
,,,,,,,,,,,8h[4:1],
{2}1h[4:1],{6}7/2,{12}8,1xw5[2:1],,,,,,,,,,,,6/4,
,3/7h[3:1],
,,,{4}1,1/8,1pp4[2:1]/8qq5[2:1],
{12},,,,,,,,,4/5h[4:1],,3h[3:1],
,,{6}6h[12:1],{12},,{4}1h[6:1],8h[6:1],
1>4[4:1],7,{6}5,5h[12:1]/4h[12:1],{12},,{4}4/5,
3/6,2/7,8b/1b>4[4:1],
,5<8[4:1],,1h[2:1],
{2}8h[4:1],{4}1h[6:1],8h[6:1],
1,1/7,2/8,3/6,
7/4,5/2,3/6,Cfh[4:3],
,,,,{1}1x>4[2:1]/8x<5[2:1],
{4}4h[4:1],5h[4:1],6h[4:1],7h[8:5],
{8}E2,B2,B3,E4f,,,,,,,,,{2}3xqq4[1:1]/6xpp5[1:1],
{4},,,,1h[4:1],
8h[4:1],7h[4:1],6h[8:5],
{8}E4,B3,B2,E2f,{24},,,,,,{12}7x/2x,,2xh[3:1]/7xh[3:1],
,,,,,,{4}8h[6:1],1h[4:3],
{1}7x<3[0.7143##1.0714],
{4},,2/7,3/6,
{2}4h[4:1]/5h[4:1],{4}4h[6:1],6q3[2:1],
{1}6x,
{8},5x,5x,5x,4x,4x,{12}4x,,6x<8[4:1],
,,,,,,{4}3,3h[4:5],
{1}6h[1:1],
{4},,,3v2>4v3[4:7]/6v7<5v6[4:7],
,,,,,,,,8/2v4[2:1],
7,{12}6,,,,,5,
,,{6}4/5,{12},,{4}4xh[4:1],6,
{12}4qq2[2:1]/5pp7[2:1],,,,,,,,,,,8h[4:1],
,,{6}2,,{2}2<6v8[4:7]/6>2v4[4:7],
{4},,,,,,,8h[6:1],
1,7/8,{12}1/2h[4:1],,,,,8,
,,{6}1h[4:1],{12},,{4}8h[6:1],1,
2/7,6/3,{2}5h[3:2]/4h[12:5],
{6},3h[4:1],{12},,{4}5x,4/5,
6/3,4-2[4:1]/5-7[4:1],{12},,,,,8xh[4:1],
,,{6}1h[12:7],{12},8h[12:1],,,,{4}7,
Cfh[1:1],8x,7bx,6bx,
{2}5bx,{4}1/7<5[4:1],1>5[2:1],
{12},,,,,,,,,4,,5,
{4}3xh[4:1],{12}6,,2h[4:1],,,7,,,1h[12:1],
{4}8x-6[6:1],1-4[4:1],{2}8x-5[4:1],
{4},7h[6:1]/2-4[6:1],{12},,{3}5,
{4}5b,{12}4/6h[6:1],,3,,,2h[3:1]/7h[12:1],,,8h[12:1],
,,,7,,3-1-4-8-5-7[6:5],,,,,,,,,,,,,,,,2/7h[2:1],
,3,
,,{6}4h[12:1],,2/7,{12}1,8xw4[2:1],,,,,,,,,,,,4/5h[6:1],
,3h[3:1],
,,,{4}6,7/2,7-5-8[2:1]/2-4-1[2:1],
{12},,,,,,,,,8h[12:5],1h[3:1],,,,,,,,{4}3h[6:1],
5h[6:1],
{12}5xh[4:1]/3xh[4:1],,,,,4/6,,,{3}2h[12:1]/8q5[0.7143##0.8333],
{4}1x,2x,3bx,4bxh[1:1],
B6,B7,B8,B1,
,,{2}8x<5[4:3],
{4}2xh[2:1],,,5x/4x,
{2}5h[4:1]/4h[4:1],6h[4:1]/3h[4:1],
{4}7/2,7q5[2:1]/2p4[2:1],,,,6h[6:7]/5h[8:3],
,,4,
3xh[6:1],{12},,{3}2h[4:1],
{4}E1,B7,{8},B5,,Ch[8:9],
,,,,,,,,,,,,,,{4}1q5-8[1:1]*-4>2[1:1],
,,,,,6/3h[6:1],
5h[12:5],{12}3,,2-5[3:1],
,,{6}6,{12},,{4}7bx<5[4:1],3>1-5[2:1],
{12},,,,,6h[12:1],,,,{4}7/2,
6/3h[4:1],5,2b,{12}1/7h[6:1],,2,
,,{6}1h[3:1]/8h[12:1],{12},,{4}7,{12}3/6,,5/4,
,,{6}4qq4[12:5]*pp4[12:5],{12},,,,,,,,{4}5/3,
4/2,6/4,7/5,
{6}5h[4:1],{12}3x,3x,,,{2}6<8[4:1]/3>1[4:1],
{12},,,2/7h[4:1],,1,,,,{4}2/8,
8/3,1/6,{2}5h[4:1]/3h[4:1],
{4}4/5,{12}4bx/5<8[6:1],,3bx,,,{3}1bx,
{6}2/8h[4:1],1h[4:1],{12},,{4}8x,{12}2/7,,7/2,
,,{6}4,{12},,{4}5h[12:5]/4h[6:1],3h[12:5],
6h[12:5],2h[4:3],{2}7h[2:7],
,Cf,
{4},,,,,,,,1x,
1x,{12}1/8,,,,,3/6,
,,{6}3v2[12:5]/6v7[12:5],,,,,{1}1xpp4>1[2:3]/8xqq5<8[2:3],
{2},,7h[2:1],
1h[2:1],
8h[2:1],2h[2:1],
{4}8xh[6:1],Ch[4:5],,,,,,,B2,
B8,{12}B6,,,,,5x>3[0.7143##0.4762]*<7[0.7143##0.4762],
,,,,,,,,,,,,{4}7/2,
1/8,{12}8/1,,,,,8h[2:1],
,,{6}2h[4:1],{12},,{4}E1,C,
{2}5<7[4:1],4>2[4:1],
6<8[4:1],3>1[4:1],
{4}A7,C,
E
&lv_5=12.6
&des_5=星露
&inote_5=
(84){4},,,,{2}8x/7x,
{8}1x/2x,,,2xh[2:1]/7xh[2:1],
,,,,,,{4}8/1,
{8}1,2,3,4,5,6,7,8h[8:5],
,,,,,,,,1/8,
8/1,{4}8<5[4:1],{8},,,,4>1[24:5],
8v5[24:5],{4}4x,{12},1x-3[12:1],{24},6h[24:1],,,,,,,6h[4:1],
,,,,4x,4xh[4:1],,,,,5,5h[4:1],,,,,3,{4}3h[4:1],
{8}5h[12:1],4/5h[8:3],,E2,B2,B3,E4,A4,
{12}5,{24}5,4,,4,{4}4xh[12:1]/5xh[12:1],{8}4qq4[6:1]*pp4[6:1],5x/3x,{24},,,,,,{12}4x,
{24}4,5,,5,{4}5x-1>2-6>5[8:3]/4x-8<7-3<4[8:3],{24},,,,,,,,,,,,7h[4:1],
,,,,1,1h[4:1],,,,,8,8h[4:1],,,,,2,{4}2h[4:1],
{8}8h[12:1],8qq5[8:3]*pp3[8:3],{4}7/1,{8},,,6h[12:1],
5/6,4/7,{24}8h[8:1]/3h[8:1],,,,,4,,,{12}4/5h[8:1],{24},,{8}2h[12:1],1h[12:1],
8x/1p4[4:1],2/7,{24}8h[8:1],,,,,6,,,{12}6/5x,{24},8/1,{8}1/8h[8:1],2b,
8qq6[8:1]/1pp3[8:1],2/7,{4}8/1,{8}5/4,6/5,3/4,6/3>1s5[8:5],
7,8z4[8:3],,8x,,,,3h[12:1],
3/4,6/5,{24}4/5h[8:1],,,,,4xh[4:1],,,{12}6h[4:1],{24},,{8}3h[12:1],2h[12:1],
1x/8,7/2,{24}6/3,,,,,7h[8:1]/2h[8:1],,,,,,1h[24:1],,,,{8}1/8,
8-6[8:1]/1-3[8:1],2/7,{24}8x/1,,,,,4/5,,,{12}6/3,{24},1h[24:1]/6h[24:1],,,,{8}8/3,
Cfh[2:1],E1,E3,E5,{4}E7,7bh[8:1]/1pp1b[4:1],
{8}8v5[16:3],7,8x,3h[12:1],4x/3,{24}1/7,,8/2-6[0.8333##0.3571],,,{6}1h[8:1]/8-4[0.8333##0.3571],
{8}2x/5x>2[6:1],8x,{4}5x,{8},3h[24:5]/6h[24:5],,,1b/7b,
{24}6/3,,2h[6:1],,,7,7,,8,{8}1/8,{24}1/7h[12:1],,2,,,6/4,,,4h[4:1]/5pp8[4:1],
,,,,,,,,,,,4x,{12}3>3[4:1],{24}2,1,,,{4}3x,
{8}8h[4:1],3,2,{24}1/8-5[8:1],,7/2h[8:1],,,,{8}3/8,1,8qq5[4:1]/1pp4[4:1],
{24}7/2,,,,,,,,,,,5/4,,,{12}7h[24:1]/2h[24:1],,8,{24}1,8,,1>4[8:1],
8h[8:1],,,,,7/1x,,,{6}6h[24:1],{24}4b/5,,,3/6b,,,{8}2b/7,8b/1>4[4:1],
2,5<8[4:1],{4}6,{12},,,3,{24}4,6,,5,
{8}5/4x,4/6,3/5,2/7,6/1,8/3,2/7,Cfh[8:3],
,,,,{2}1>3[8:1]/8<6[8:1],
{8}4h[8:1],5h[8:1],6h[8:1],7h[16:5],{16}E2,B2,B3,E4f,,,,,,,,,{4}3xqq4[8:3]/6xpp5[8:3],
{8},,,,1h[8:1],
8h[8:1],7h[8:1],6h[16:5],{16}E4,B3,B2,E2f,{48},,,,,,{24}7x/2x,,2xh[6:1]/7xh[6:1],
,,,,,,{12}1,{24}8x,1xh[8:3],,,{2}6bx>3-6[8:3],
{8},,2/7,3/6,{4}4h[8:1]/5h[8:1],{12}6q3[4:1],{24}5,4,,3,
{4}6x,4,{16},5x,5,5,4,4,{24}4,,6h[8:1],
,,,6x,,6x,{8}3h[12:1],3xh[8:5],{2}6h[2:1],
{8},,,3v2>4v3[24:11]/6v7<5v6[24:11],,,,,,,5/4,
3/6,7/2p4[4:1],3/8,{24}7h[8:1],,,,,6,
,,{12}6/5,{24},4,{8}4h[8:1],6b,5pp7[8:1]/4qq2[8:1],3/6,{24}5/4,,,,,1xh[8:1],
,,{12}8h[6:1],{24},1,{8}1x>4v6[16:11],8,7,8v2[16:5],,8x,
,,,2h[12:1],2/1,7/8,{24}1/8h[8:1],,,,,1h[4:1],
,,{12}7h[24:7],,1,{24}2,3,,,{8}4/5,6/3,{4}7h[24:11]/2h[24:5],
{12},3h[8:1],{24},,{8}3x/6x,4/5,5-7[8:1]/4-2[8:1],3/6,{24}5/4,,,,,1xh[8:1],
,,{12}8h[6:1],{24},1,{8}1,2/7,Cfh[2:1],1bx,7bx,5bx,
{4}3bx,{8}4/6>5-8[4:1],3>1[8:1],6x/4,3x,{24},,,7/8,,7x,
{8}7h[8:1],{24}2h[24:5],,8,,,8h[6:1],,,1,{8}1-5[24:5],7/2,{24}1x/8-6[0.5952##0.4762],,,,,8x,
,,,{8}2-4[0.5952##0.4762],{24},,{6}6/2x,{24}6b,,,5/4,,5/4,,,7,8,,2,
{8}1,{24}2/8h[24:5],,3-1-4-8-5-7[0.6548##0.8929],{48},,,,2,,,,,3x,,,{16}E2/B1/A1,A4/B4/E4,A8/E8/B8,A5/E6/B5,{48},,,,,,{24}1/8h[12:1],,2,
,,6/3h[24:1],5,,,{12}6h[4:1]/2<7>2<1-4[2:1],{24}3,3,{48},,,,2,,,,,8x-5[0.7738##0.3571],{4},,{8}5/4,
3p2[4:1]/6q7[4:1],5/4,6/3,{24},,,,,,8/1,1/8,,,,{12}2h[24:1]/7h[24:1],
,6,{24}5,4,,3,5xh[8:1]/3h[8:1],,,,,6/4,,,{6}2h[24:1]/8q5[24:7],
{8}1b,2b,3b,4bh[2:1],B6,B7,B8,B1,
,,{4}8x<5[4:1],{8}2xh[4:1],,,5x/4x,
{4}5h[8:1]/4h[8:1],6h[8:1]/3h[8:1],{2}7q5[4:1]/2p4[4:1],
{8},6h[12:7]/5h[16:3],,,4,3xh[12:1],{24},,{6}2h[8:1],
{8}E1,{16}B7,E7,,B5,,Ch[16:9],,,,,,,,,,,,,{4}1q5-8<7[2:1],
1-4>3[4:1],1x,
{24},,,2/6h[8:1],,3,{8}4h[24:5],{24}7-4[8:1],,8,,,{12}2,{24},,{8}2b>4[8:1],6/4-8[8:1],
{24}6,,,,,7,{8}6p5[4:1],7/2,{4}6/3h[8:1],{8}2b,{24}1/7,,1/7h[6:1],
,,2,3,,,{8}3/6h[8:1],{24}3,,4qq4[24:5]*pp4[24:5],,,{12}5/3,,,,,5x/3x,
{24}3,5,,,{12}6/4,{24}6,4,,,{12}5pp8[16:5]/4qq1[16:5],{24}3/6,6/3,,,{4}4/5,
{24},,,2/7h[8:1],,1,,,,{8}2/8,8/3,1/6,{4}5h[8:1]/3h[8:1],
{8}4b/5b<8[12:1],{24}4b/5,,3b/5,,,{6}1b,{12}2,{24}1,8,,7-5[8:1],{8}3/6,{24}2/7,,7/2,
,,{12}4,{24},,{8}5h[24:5]/4h[12:1],3h[24:5],6h[24:5],2h[8:3],{4}7h[4:7],
,B8f/B7f/B6f/B5f/B4f/B3f/B2f/B1f/Cf,{8},,,,,,,,1x,
1x,{24}1/8,,,,,6v7[16:3]/3v2[16:3],
,,{12}6/3,{24},,,,,,,,{8}8qq5<8[8:5]/1pp4>1[8:5],2/7,{4}1/8,
{24},,,,,,,,,,,,7h[4:1],,,,,1,1h[4:1],,,,,8,
8h[4:1],,,,,2,{4}2h[4:1],{12}A8,{24}B8,Ch[8:5],{4},,,{16},{48},{12}E3,
{24}B1,B8,,E7,{12}B6,E5,{24},5xp1[6:1]*q1[6:1],
,,,,,,,,,,,,{8}8/1,2/7,{24}7/2,,,,,8h[4:1],
,,{12}2h[8:1],{24},,{8}E1,C,{4}5<8[4:1],4>1[4:1],
{2}4x<7[4:1],{12}A2,{24}B2,C,
E
&lv_6=13.7
&des_6=Rika
&inote_6=
(84){4},,,,{2}8x,
{48}7x,6x,,,,,,,,,,,,,,,,,{8}5x,
,,,,,,5/1,3,
3,5,6,7>3[8:3],{2}7,
{8},,3,2,,,,,1,
8,7<4[4:1],1,{2}2>5[4:1],
{8}8,1,2>6[4:1],8,{4}6<2[4:1],A6,
{24}8,,,,,7,7,,,,,6,6,,,,,5,{4}5s1[4:1],
{8},,4,3,1,2,6,5,
8,1,3/5pp5[4:1],6/4,{2}5qq5[4:1],
{8}8,1,3p6[4:1],8,{2}6p2[4:1],
{24}8,,,,,2,2,,,,,6,6,,,,,4,{4}4z8[4:1],
{8},,,3,,5,7,8h[12:1],
{48}1bx,2,{24}3,,,,,6/8,,,,,5/3q6[4:1],,,{12}5,{24},3,{4}6,
{48}8bx,7,{24}6,,,,,3/1,,,,,1/6qq2[4:1],,,{12}1,{24},6,{4}4,
{48}5bx,6,{24}7,,,,,2/4,,,,,6h[8:1]/3h[8:1],,,,,,7,{8}6,{64}6q1[4:1],E6,B5,B4,{16}E4,
{4},,,{16},,{24}7,,6,
{48}1bx,2,{24}3,,{8}5,{24}7/1,{48},,,,,,,,7bx,6,{12}5,1h[8:1],{24},,{8}3h[12:1]/8h[12:1],7h[12:1]/2h[12:1],
2>5[4:1],2,{24}2/5p3[4:1],,,,,7h[8:1],,,,,,6h[24:1],,,,{8}6/2,
8/5,2,{24}1/4,,,,,7,,,{12}7-3[16:3],{24},7,{48}2bx,1,{24}8,,,,,,,,{8}1b/5b,
2b/6b,3b/7b,{4}8bh[8:1]/4bh[8:1],Ch[8:1],
{12}7,7,{24},,1/5,,,,,4/2,,,3,4/2,,,{8}8-5[8:1],8-3[8:1],
8p8[4:1],8,{24}8-4[12:1],,,,,6h[24:1],,,{12}8h[24:1],{24},2,,,{6}7h[6:1]/3h[6:1],
{12},6h[6:1],{24},,1,,,,,6V42[4:1],,,{12}6h[24:1],,{4}2qq6[24:13],
7,{24}E1/A8/B8,,,,,7h[24:1],,,{12}8h[24:1],,5/2<7[4:1],{24}2,3h[8:1],,,,,,,,,{4}4h[24:5],
{8}3h[12:1]/5q1[4:1],2,{4}5/1>5[4:1],
{24}3h[4:1],,,,,,,,,,,7h[24:1]/3h[24:1],,,{12}2h[24:1]/6h[24:1],{24},,6/2,,,,,7,
{4}6h[12:1],{24}4/2,,,,,6,,,2,1,,,{4}7/1h[4:1],
{12}6<4[4:1],1,{24},5,{4}6,{8}7h[12:1],2h[12:1],{48}8bx,7,{24}6,{48},,,,,,,,1bx,
2,{24}3,{4},{16},,{24},{48}5bx,6,7,8,{4},{16},,{24},{48}4bx,
3,2,1,,,,,,,,,8h[24:5]/4h[24:5],,,,,,,,,,,7/3,{12}6/2,4,{24},,6,,,,,6,
{8}7<3[4:1],4,{24}7/1>5[4:1],{48},,,,,,,,3x,2x,{4}1x,{24}6,,,,,7h[24:1],
,,{12}6h[24:1],{48},,,,1h[24:5]/5h[24:5],,,,,,,,,,,2/6,{4}7h[8:1]/3h[8:1],{12}5,4,{24},3,
{8}2>6[4:1],5,{24}2/8<4[4:1],{48},,,,,,,,6x,7x,{4}8x,{8}3,{24}1,,2z6[4:1],
{8}5h[12:1],5,{12}6,{24}7,8,,,{12}8qq5[4:1],{24}4,3,,,{8}8,{24}3-1[8:1],,3h[24:1],
,,,{8}3,6,7/4q2[8:3],{48}7b,6,{24}5,{48},,,,,,,,6h[24:5],,,,,,,,,,,7,
{12}8pp4[4:1],{24}7,6,,3,8,,,,,3h[24:1],{48},,,{16}2bx,2bx,2bx,{12}2h[6:1],4,{48},,6b,7,
{8}8h[12:1],3h[12:1],{12}7/4,{24}2h[24:1],5h[12:1],,,{2}3w7[2:1],
{4},,{48}E2,B2,{24}B3,{48},,,,,,,,E8,B7,{24}B6,,,,Ch[8:1],
E7/B7/B6,,,,,7,{12}3,{24}3,{48}7,E8,B8,B1,,,E4,B3,{24}B2,{48},,,,,,,,E6,B6,{24}B7,,,,Ch[8:1],
E3/B3/B2,,,,,6,{12}2,{24}2,{48}6,E6,B5,B4,,,E6,B6,{24}B7,{48},,,,,,,,E4,B3,{24}B2,,,,Ch[8:1],
E7/B6/B7,,,,,3,{12}7,{24}7,3q6[4:1],{48},,,,A6,E6,B5,B4,{4},{16},,{24},{12}8,
7h[24:1],{24},6h[24:1],,,,,,,{12}6/3,4h[24:1],{24},,B5/E6/B3/E3,,,,,6,
{12}7,{24}3,2,,,{8}8h[12:1],1,{12}7/2,1h[24:1],{24},,B1/E2/B7/E7,,,,,7,
{12}6,{24}2,3,,,{8}6h[12:1],{24}4,,6,{12}7/3,2h[24:1],{24},,B1/E2/B7/E7,,,,,7,
{12}6q3[4:1],{24}2,3,,,{4}6,{12}Ch[2:1],E8h[24:1],{24},B8h[24:1],,,B1h[24:1],,,E2h[24:1],
,,,,,,{4}7bh[24:5]/3bh[24:5],{6}2h[4:1]/6h[4:1],{24},,,,6/2,,,7h[24:1],
{12}2,{24}1h[24:1],5,,,{8}1-4[8:1],1-6[8:1],1q1[4:1],1,{24}1-5[12:1],,,,,2h[24:1],
,,{12}3h[24:1],,1V35[4:1],5,,1,7,{24},8h[24:1],,,5,4,,6h[6:1],
,,{12}3,{24},2,{8}6pp2[2:1],3,{12}6,4h[6:1],{24},,,,,,,5,
{12}5p3[24:5],5h[24:1],,7>2[4:1],7h[24:1],,{4}2q7[4:1],{8}5,4h[12:1],
{24},,3,7,,,{8}5/2,{24}3p7[4:1],,6h[24:1],,,{12}3,{24},,5h[8:1],,,,,6,
{8}1h[12:1],8/2,{12}E8/B7/B2/E3,Ch[24:1],{24},6h[24:1]/1h[24:1],,,{12}3,{24},7h[8:1]/1h[8:1],{48},,,,,,,,,,6bx,7,
{12}8q1[4:1],{48}3bx,2,{8}1,{4}8/2,{8}2h[12:1],7/3,{12}4,3/5,,{2}C,
6h[24:5],
2h[4:1],7h[3:1]/2h[8:3],
{8}8/1,7h[8:3],{24},,2h[6:1],,,,,,,5h[12:1],,,,,3,,,4h[24:1],
,,,{8}5h[12:1],{24},,2>2[8:3],,,2h[8:1],,,,,,A4,{12}D5,{24}D7,A7,,A1,
{48}A2,E3,B3,B4,,,,,,,,,{4}Ch[6:1],{6}B7h[4:1]/B3h[4:1],,C,
{8}2/5,{24}5/3,,6,{12}1-4[12:1],7h[24:1],{24},1h[24:1],,,{12}7h[8:1],{24},,{8}6b,{24}3b,,1b-4[24:1]*-6[24:1],
{8}1bh[24:5],{24},,,,,,5x/3x,,6,{4}2h[12:1]/7h[12:1],{12}5p4[4:1],6/3,{24},,5,
,,,,2,{12}1pp1[4:1],6h[24:1],,{4}1qq1[4:1],5h[12:1],
{24}6,,,,,8,{12}7,{24}1,2,,,{8}4h[12:1]/7pp3[3:1],7h[8:1],{24},,{6}1h[6:1],
{24},,,1,,7,{12}2,{24}6/1h[6:1],5,,,5,,,,,7,{4}4h[8:1],
{8}8b/4b,{24}7b/3b,,6b/1b,,,{6}1bh[24:1]/5bh[24:1],7/2,{24},2,{4}1/6h[12:1],
{24}1/8,,,,,7h[8:1],,,,{8}2,{24}3/6,,,,,3h[24:1],,,{6}6h[24:1],
{4}Ch[12:1],{48}E8/E2,B7/B2,B6/B3,E6/E4,{4},{16},,{24},{4},
{8},,,,8/2,1,2>5[4:1],8,
{2}2/7<4[4:1],{8}1,8,7qq3[4:1],1,
{4}3qq7[4:1],A3
||这是一个标记~
,{24}1,,,,,2,2,,,,,3,
3,,,,,4,{4}4z8[4:1],{2}4/8,
{4},6/3,{24}5/2,,,,,4,3>8[4:1],,,,,3h[24:1],
{2}6<1[4:1],{8}4,5,{12}6>2[24:5],3,{24},2p2[4:1],
,,,,,,,,,,,,8,,,,,1,1,,,,,2,
2,,,,,3,{8}3z7[2:1],3h[8:1],
E
