&title=Oriens
&artist=ginkiha
&first=0.018263
&des=东方project
&lv_5=14
&inote_5=(185)
{8},,
{64}5<2[3:2]/4,,,,,,,,,,,,,,,,,,,,,,,,,,,,,,,,,,,,3h[32:3],,,,,,,,,,,,,,,,
{16},,,,,,,,24,,,,35,,,,46,,
{64},,1,,,,,,,,,,,,,,,,,,,,,2,,,,,,2q5[32:14],,,,,,,,,,,,,,,
{64}8,,,,7,,,,6,,,,5>8[3:2],,,,,,,,,,,,,,,,,,,,,
{64}7,,,,,,,,,6b,,,,,,,,,,,,,,,,,,,
{8},,,
{8}75,,64,,35,
{64},,2,,,,,4,,,,,,,,,,,,,,,,
{4}1,
{64},,,,,,5/4>7[3:2],,,,,,,,,,,,,,,,,,,,,,,,,,,,,,,,,,,,6h[32:3],,,,,,,,,,,,,,,,,,,,,,,,,,,,,,,,,,,,,,,,,,,,,,,,
{8}86,,17,,28,
{64},,4,,,,,,,,,,,,,,,,,,,,,6,,,,,,6p4[32:14],,,,,,,,,,,,,,,,
{16}1,2,3,4<1[3:2],,,,
{64},,,2,,,,,,,,,,,3b,,,,,,,,,,,,,,,,,,,,,3b,,,,,,,,,,,,,,,,,,,,,
{8}24,,31,,28,
{64},,6,,,,,,,,,,,5,,,,,,,,,,,,2,,,,3,,,,5,,,,,,,,,,,
{64}4,,,,,,,,,,,,3,,,,,,,,,,2,,,,,,,,,,,1,,,,,,,,,,8,,,,,
{16}1,2,3,4,
{32}5,6,7,8,1,2,3,4,5,6,7,8,1w5[12:1],,,,,,,
{4}1,
{8}3-1[8:1],,5-1[6:1],,2-6[6:1],,8-4[6:1],,
{4}5,2,
{8}34,5,1,65,8,12,4,65,7,
{16}1,2,3,,7,6,5,,34,,2-6[8:1],,17,,2/6s2[3:1],,,,7-3[8:1],,,,,,,,
{8}1,,1-5[8:1],,31,,8-4[8:1],7,86,,5-1[8:1],,75,,4-8[8:1],3,24,,2-6[8:1],1,2/8-4[8:1],7,1w5[8:1],2,1,,
{16}2-5[8:1],,,,8-3[8:1],,,,4-1[8:1],,,,7-4[8:1],,,,5-2[8:1],,,,5,,,,8-4[6:1]*-5[8:1],,,,8,,,,
{8}3,12,6,54,2,18,7,64,
{16}2,3,4,,8,7,6,5,34,,15,,8b/7b,,,,
{8}1-5[8:1],,13,,8-4[8:1],7,86,,5-1[8:1],,57,,4-8[8:1],3,24,,
{8}2-6[8:1],,24,,7-3[8:1],7,7,,1/4pp8[2:1],1,1,1,1,1,{16}1,2,3,4,5h[4:1]/1,,,,
{8}1,13,1,16,1,14,
{16}1,8,7,6,2,3,4,5,
{8}1-6[8:1]*-5[8:1],,1,,
{16}47,,3,2,1,8,5,6,7,8,1,2,3,4,5,,
{8}3h[8:3],2,2,2,6h[8:3],7,7,7,
{16}1-5[8:1],,8,,1-6[8:1],,,,1-4[8:1],,5,,1,,,,8-4[8:1],,5,,8-3[8:1],,,,8-5[8:1],,4,,8,,,,2pp4[8:1]/6pp8[8:1],,,,
{8}26,,5-2[8:1],6,5-8[8:1],,5-2[8:1],4,5-8[8:1]*-7[8:1],,5-2[8:1]*-3[8:1],,5,,8-5[8:1],,
{8}8qq4[8:3],1,1,1,1,1,
{16}1,2,3,4,5,6,7,8,1v4[8:1]/5v8[8:1],,,,51,,,,
{16}7,6,5,4,1,2,3,4,8,7,6,5,8,1,2,3,
{8}6h[8:3],7,7,7,3h[8:3],2,2,2,
{8}8<5[8:1],1,8>3[8:1],,8-4[8:1],5,8,,1>4[8:1],8,1<6[8:1],,1-5[8:1],4,1,,
{8}8-6[8:1]*-5[8:1],8,8-4[8:1],,8-3[8:1]*-2[8:1],,8,,5h[2:1],6,6,6,
{16}6,7,8,1,2/5-1[8:1],,,,5<4[1:1],,,,,,
{8}8,,6,,7,,8,,7-4[8:1],,5,2<4[1:1],,
{16}4,,4,,3,,3,,,,4,3,2,1,8<1[1:1],,,,
{8}1,,8,,1,8,7,6>7[1:1],6,7,7,,
{4}1,7,6,5-2[8:1],
{8}3>4[1:1],1,,4,4,3,3,,
{16}3,2,1,8,7-4[8:1],,,,7/5-2[8:1],,,,5/3-8-2[4:1],,,,7,,6,,5,,
{16}43,,4/3-1[8:1],,2,,3-5[8:1],,,,3/8-3[8:1],7,6,,1-6[8:1]/8,,,,1>4[8:1]/8<5[8:1],,,,1-5[8:1]/8,,,,6,,8,,,,
{16}56,,5/6-8[8:1],,7,,6-4[8:1],,,,6/1-5[8:1],2,3,,1/8-4[8:1],,,,8<5[8:1]*>3[8:1],,,,8-4[8:1],,,,5,,3,,1,,3b,,3-1[8:1],,4,,3-5[8:1],,,,8,7,6-3[8:1],3,2,1,6b,,8-4[8:1],,,,8-6-2[4:1],,,,3,,1,,,,3b,,3b,,54,,54,,6b/5b,,6b/5b,,45,,4-8[8:1]/5,,3,,7-3[8:1],,,,1-4-6-3[4:1],,,,1,,6,,8,,
{16}7,8,6,1,5,2,4,1,2,8,3,7,4w8[8:1],,,,4,,,,
{16}2-6[8:1],,1,,8-3[8:1],,7,,4-1[8:1]/8,,,,4-6[8:1]/7-5[8:1],,,,4/7-3[8:1],,,,7-4[8:1]/1-4[8:1],,,,17,,,,
{16}3-1[8:1],,2,,3/6-1[8:1],,7,,6/2>5[8:1],,3,,2,,8,,6,7,8,1,2,6,7,8,1-6[8:1]/5-2[8:1],,84,,1-5[8:1],,,,1>8[2:1],,,,1h[4:1],,,,,,1,,1,,,,
{16}2h[4:1],,1,,3h[4:1],,8,,4h[4:1],,1,,5h[4:1],,8,,1,6,1,6,1,6,1,6,2,7,2,7,2,7,2,7,3,8,3,8,3,8,2,1,2,1,2,1,3-5[8:1]/8-2[8:1],,,,3/8-4[8:1],,,,
{16}8-2[8:1]/4-6[8:1],,,,8-4[8:1]/4,,,,8-6[8:1]/4-2[8:1],,,,8-4[8:1]/4,,,,8/4-7[8:1]*-1[8:1],,,,4>5[4:1],,,,2,,,,
{16}3-7[8:1],,4,,3/6-1[8:1],,5,,6/2-5[8:1],,3,,2/6<1[8:1],,,,2,3,4,5,2,3,4,5,6-1[8:1]/2-5[8:1],,73,,6/2<4[4:1],,,,2,,,,
{16}2-8-6-4[4:1],,,,2h[4:1],,,,,,2,,6h[4:1],,8,,5h[4:1],,1,,4h[4:1],,8,,3h[4:1],,8,,7,2,7,2,7,2,7,2,6,1,6,1,6,1,6,1,87,,8,,86,,8,,85,,8,,5,6,7,8,1-6[8:1]/5b,,,,
{16}1/5-2[8:1],,5,,5/7-4[8:1],,7,,7/2>5[8:1],,2,,26,7,8,1,6,7,8,1,2-6[8:1]/5-8[8:1],,,,2>5[8:1]/5,,,,5,,
{16}6,7,8,1,6,7,8,1,2h[4:1],,4,5,6,,8b,,7,6,5,,1b,,2,3,4,,7-1-3[6:1],6,5,,7-5[12:1],,4,,7-1-3[8:1],,,,7-5[12:1],,4,,7-3[8:1],,,,
{16}7/2-4[12:1],,1,,2-8-6[6:1],,,,2-4[12:1],,5,,2,,,,1-6[8:1]/5-2[8:1],,,,1/5>7[2:1],,,,,,1,,1h[4:1],,,,,,
{16}1,,1w5[8:1],,,,1,,,,3-8[8:1]/7-3[8:1],,,,37,,,,5,,57,,5,,52,,5,,5<8[8:1]/8,,1,2,3,4,1,2,3,4,5<8[8:1]/1>4[8:1],,,,15,,,,4,8,4,8,3,7,3,7,2,6,2,6,1,5,1,5,2b,,3,4,5,,7b,,6,5,4,,1-5[8:1],2,3,,1/8-3[8:1],,,,8/1>7[2:1],,,,,,8,,8,,,,2-5[8:1],,2,,2/8-3[8:1],,,,8/4-1[8:1],,4,,4>6[4:1],,,,4,,,,,,5-1[8:1],,,,5,,8,7,6,5,1,2,3,4,8,7,6,5,
{32}1,2,3,4,5,6,7,8,1,26,5,4,3,2,1,8,7/2b,3b/6,4b/5-3-1-7-5-3-1-7-5-3-1-7-5-3-1-7-5-3-1-7-5[1:10],
