&title=Ops:Limone
&artist=Reku Mochizuki
&first=-0.03
&des=墓
&lv_5=13+
&des_5=墓
&inote_5=
(210){4},,,,1,
,,2,
,,{2}3,
{4},4,,,5,
,,6,
,,{2}7,
{4},8,1/8,C,
1v3[4:1],,,1v4[4:1],
,,{2}1-5[4:1],
{4},C,{8},,4,5,
{4}1v6[4:1],,,1v7[4:1],
6,5,{2}4/1v8[4:1],
{4},C,,5/4,
{8}4h[4:1]/2h[4:1],,,1h[4:1]/3h[4:1],,,{4}2-6[4:1],
8,7,{8}7h[4:1]/5h[4:1],,,8h[4:1]/6h[4:1],
,,{4}7V51[4:1],1,{8}2,2,
{4}3h[4:1],{8}5,3h[4:1]/5h[4:1],,,{4}4>8[4:1],
8,6,5/7h[4:1],{8}5,5h[4:1]/8h[4:1],
,,{4}4/6<1[8:1]*v1[8:1],6,{8}2,{16}3,5,
{4}4h[4:1],{8}7,7,4,{24}E7,B6,B5,{4}E5/3V17[4:1],
7>3[4:1],{8}5,5,{4}6<2[4:1],{8}6/2V86[4:1],3,
{4}4-1[8:1],4-7[8:1],4,{8}2,{24}7,6,5,
{8}4/3<8[0.4286##0.2829],,,3/2h[4:1],,,{4}1V75[4:1],
1,2,{12}7x,5x,6x,2x,4x,3x,
5x,4x,5x,3xh[2:1]/6xh[2:1],{24},,,,,,,,,,,,,,,,{8}5/6h[8:3],
,,C,,,{4}1h[2:1],
3,3,{8}2/5h[8:3],,,E7,
,,{4}6/5h[2:1],2,2,
{8}4/1h[8:3],,,E5,,,{4}7/3h[2:1],
A2,B4,{8}6/8h[8:3],,,7,
,,{4}4/2,7/5,{8}8/1,2/7,
6/3h[8:3],,,2<5[0.4286##0.5686],,,{4}A3,
A2,A1,{8}8b/6h[8:3],,,7>4[0.4286##0.5686],
,,{4}A5,A6,A7,
{8}8b/5h[8:3],,,1<4[0.4286##0.5686],,,{4}4,
2,8,1-5[8:1],{8}1,8,
{4}7<4[8:1]*>2[8:1],7-3[8:1],7,2,
1/8,{8}1,6,1,{24}A7,E7,B6,{4}B5/3pp4[4:1],
5>8[4:1],7,4-8[8:1],{8}4,1,
2,3-8[8:1],{4}3-6[8:1],,2/7,
8/1,{8}8,3,8,{24}A2,E3,B3,{4}B4/6<1[4:1],
2V85[16:5],3,4v1[8:1],{8}4,5,
{4}6-4[8:1],6-1[8:1]/2-5b[8:1],2,{8}8,8,
{4}7h[4:1],{8}6,7,5,{24}6x,B7,B8,{4}E1/4-1[8:1],
4/7-3[8:1],7,8>6[8:3],{8}7,7,
{4}8-4[8:1],8,1,{8}2/1,2/1,
{4}8/3-8[8:1],{8}3,7h[8:1],1h[8:1],6h[8:1],2,{16}3,4,
{8}3,5/4,6,6/5,3/7,3/7,2/6,6/2,
{24}1x,8x,1x,8x,,,{4}2<7[8:1]/7<4[8:1],2/7w3[8:1],7,
1-3<4<7V13<3[1:2],,,B7/E7/B6,
,,{2}B4/B3/E4,
{4},B8/B1/E1,,6,
7/5>6[2:1],6,5,4>6[16:7],
{8},5,,,{4}4h[4:1],7>3[4:1],
3-5-1[4:1],4x,{8}2x,2x,{4}3x/1x,
1h[8:3]/8-6>5>2V86>6[1:2],,,2h[2:1],
,,{2}3h[8:3],
{4},B1/B8/E1,B5/B4/E5,3h[8:1]/6h[8:1],
2pp8[2:1],7,6,5>8[8:3],
{8},1x,{24},,,,,,{12}2,4,3,6,4,5,
1,4,2,7b>1[8:1],,,{4}7b/4bw8[8:1],4b,
{1}2,
{2},4/6h[4:5],
,,{1}A7/D7/A6/E7/Ch[8:21],
{4}6,7,{8}8h[4:1],,,7h[4:1],
,,{4}6h[8:3],{8},,,,5,
5,E4,B5,{4}B2,{8}6,6,
B3,E5,{4}E2,{8}7,7,B5,E7,
{4}E4,{8}6,6,5,4,{4}3h[4:1],
{8}5,5,4,3,{4}2h[4:1],{8}6,6,
5,4,{4}3h[4:1],{8}7,7,6,5,
4,3,{4}2/5>7[4:1],,C,
2b-5[8:1],{8}8,7-4[8:1],,2,{4}3V17>3[2:1],
6,5,4-7[8:1],{8}7,8-3[8:1],
,7,{4}6>2>6[2:1],8,1,
2h[4:1],{8}4,4h[4:1],,6,{4}6>2[8:1],
8-4[8:1],8,1h[4:1],{8}5,6h[4:1],
,7,{4}8>3[8:1],5<8[8:1],{8}5,{16}2,3,
{4}4qq5[8:3],6,8,6pp5[8:3],
2,3,4<7[4:1],7>2[4:1],
2>5[4:1],5h[8:1],{8}6,6,7b,8,
4/7,{16}6,5,{8}6,3/8,{16}2,1,{8}2,{4}8/3b,
1/6b,7/2,{24}4,5,4,5,4,5,4,5,4,5,4,5,
{12}4,5x,4x,5x,{24},,,,,,,,,,{8}4,5,
{4}2>5[8:1]/6-1[8:1],2/6V83[4:1],6,4>1>4[8:3],
4/6<1[8:1],6,5-2[16:3],2-7[0.2143##0.2143],
7-4[0.1429##0.2143],5w1b[8:1],A5,{8}7/3,6/2,
{4}5-7[8:1]/1-5[8:1],5/1V74[4:1],{8}1,{16}3,2,{4}1V73[4:1],
4V61[4:1],A4,3>8[8:1],{8}3,6,
{4}5<8[8:1],5>2[8:1],5b,{8}1,8/3,
{4}2<8[8:1]/7-3[8:1],7/2-5[8:1]*-6[8:1],2,7-1-4[4:1],
{8}7,4,{4}5-1[8:1],5/8>5[4:1],A8,
7w3[8:1],7,1bx,{8}5/6,6/5,
{4}7/4-8[8:1],{8}4,6<1[8:1],{16},,6/2,3,{4}4>1[8:1],
{8}4,5h[4:1],,1,5/7h[4:1],,,4/2h[4:1],
,,{4}8/1,7/2,6/3,
{12}2,4,3,7,5,6,3,4,2,5,6,7,
4,3,2,6,7,8,3,3,4,2,2,8,
{16}3,4,3,5,1,2,3,4,5/1,8,7,6,{8}5/3,4,
{12}7,5,6,3,5,4,6,5,6,2,4,3,
6,4,5,3,4,3,{16}7,8,7,8,6,1,6,1,
8,7,6,5,4/1,2,3,4,6/5,7,8,1,4,3,2,1,
{12}7b,5,6,3,5,4,6,5,6,1,4,2,
6,4,5,2,3,4,{16}8,7,6,5,8/4,1,2,3,
4/6,7,8,1,2/4,5,6,7,8/4,5,6,7,{8}4/8,2,
{12}7,5,6,3,5,4,6,5,6,2,4,3,
6,4,5,3,4,2,{16}6,7,8/1,2,3,4,{8}5/7,
{24}8x,7x,6x,2x,3x,4x,{4}8x-5[8:1]/5bx-2[8:1],8/5,1<6[8:1]*>4[8:1],
1s5b[8:1],1,{16}6x,5x,{8}6x,7/4,6,
3/4-7[8:1],2,4/1,{16}2,3,{8}4>1[8:1],6,4/7,{24}8,7,6,
{8}5-1[8:1],4,{4}5/2-6[8:1],2/4w8b[4:13],Cf,
E
