&title=Basement Floor
&artist=BEMANI Sound Team "ZAQUVA"
&first=0.19
&des=Zamykal
&lv_5=14
&inote_5=(126){1},
{24}2x/7x,,,,,,3,,3,5,,5,4,,,6,,,5h[8:1]/7h[8:1],,,,,,
{24}6,,6,4,,,3/5,,,2,,,2xh[8:1]/4xh[8:1],,,,,5h[8:1]/7h[8:1],,,,1/8,,,
{24}2b/7b,,,,,,3,,3,4,,6,5,,,4/7,,,4h[8:1]/7h[8:1],,,,,,
{24}6,,6,5,,5,7,,3,4,,,2xh[8:1]/5xh[8:1],,,,,4h[8:1]/6h[8:1],,,,1/8,,,
{24}2b/7b,,,,,,2,,2,4,,,3/5h[8:1],,,3,,,4/6h[8:1],,,4,,,
{24}7,,7,5,,5,6,,,4/6,,,3h[8:1]/5,,,5,,,B2/B3/E3,,,B6/B7/E7,,,
{24}1h[4:1],,,,,,6,,6,5,,3,4-7[8:1],,2,1-5[8:1],,3,4,,,1,,,
{24}8,,8,2-4[12:1],,2,1,,1,2,,,7h[2:1],,,B6/B7,,,Cf,,,B2/B3,,,
{24}1bs5b[8:13],,,,,,2,,2,8,,8,3h[12:1],,,1,,2h[12:1],,,8,8,,,
{24}1,,1,7,,7,8,,8,6,,6,1-5[8:1],,,1,,,Cf,,,8x,,,
{24}2b/6b,,,,,,3,,6,5,,7,8<5[8:1],,3,4>1[8:1],,1,8,,,4,,,
{24}7-1[12:1],,6,5,,5,7-4[8:1],,2,2h[12:1],,,7>2[8:1],,3,,,3,7,,,5,,,
{24}3b/7b,,,2,,,4/5,,6,5,,3,4,,7,5,,5,B7/E8,,,B2/E2,,,
{24}4/6,,3,5,,6,4,,4,5,,5,2<7[8:1],,2,4-8[8:1],,4,2,,,4,,,
{24}1x,,,3/7>1[12:1],,,6,,,5/7,,,3,,3,5,,5,4>1[8:1],,4,6,,,
{24}4/5,,7,7h[8:1],,,8,,8,6,,6,4-8[8:1],,4,5-1[8:1],,5,4>1[8:1],,,5,,,
{24}4b,,,,,,7/8,,6,5,,5,7-3[8:1],8,7,8-2[12:1],,,7,,,8,,,
{24}6,,6,5,,7,8>3[8:1],,6,5-1[8:1],,7,8,,,5,,,4,,,6x/2x,,,
{24}4b/8b,,,7,,,2,,2,1,,1,3-7[8:1],4,3,4-6[12:1],,,3,,,4,,,
{24}2,,2,1,,3,4<7[8:1],,2,1-3[12:1],,3,4-8[8:1],,,1-5[8:1],,,4,,,1,,,
{24}7b,,,2,,2,4,,4,3,,3,6,,6,5,,5,B7/E8,,,B2/E2,,,
{24}7/8,,7,8,,6,5,,3,4,,2,1,,1,3,,3,B6/E6,,,B3/E4,,,
{24}1/8,,6,5,,3,4,,6,4,,3,5,,6,5w1[12:1],,3,4,,,5,,,
{24},,3,4,,2,1-6[8:1],,7,8-3[8:1],,2,1-5b[8:1],,,8-4b[8:1],,,1,,,8,,,
{24}7b,,7h[8:1],,,4,5,,3,4,,2h[8:1]/5,,,8,1,,1,8,,8,1,,,
{24}2/8,,2h[8:1]/8,,,5,4,,6,5,,4/7,,,7,8,,8,6,,6,4,,4,
{24}5,,5h[8:1],,,3,4,,2,3,,1h[8:1]/4,,,7,8,,6,5,,7,8,,5,
{24}4,,3h[8:1]/6,,,6,5,,7,6,,5/8h[8:1],,,2,1,,1,2,,2,3,,3,
{24}4,,5/6h[8:1],,,4,5,,1,8,,2/7h[8:1],,,3,4,,6,5,,5,7,,7,
{24}5,,3h[8:1]/4,,,5,4,,8,1,,2h[8:1]/7,,,6,5,,7,8,,6,5,,7,
{24}4,,2h[8:1]/5,,,4,3,5,4,6,,5/7h[8:1],,,2,2,,1,8,,3,4,,2,
{24}5,,4/6h[8:1],,,3,5,,6,4,,3,4,,6,5,,2,4,,7,5,,2,
{24}3b<1[2:3],,,,,,2,,,2,,3,3h[8:1],,,,,,3h[8:1],,,,,,
{24}4,,,4,,5,5h[8:1],,,,,,4,,,4,,,4h[8:1],,,,,,
{24}3h[8:1]/5h[8:1],,,,,,3/5,,3,5,,5,4,,,6,,,5h[8:1]/7h[8:1],,,,,,
{24}6,,6,5,,5,4-8[4:1],,4,3,,,3h[8:1],,,,,,E2,,,E3,,,
{24}4xh[8:1]/6xh[8:1],,,,,,7,,7,6,,6,5h[8:3],,,B7,,,C,,,B3,,,
{24}2xh[8:1]/4xh[8:1],,,,,,3,,3,5h[8:1],,,4,,4,6h[8:1],,,E3,,,E7,,,
{24}1/8,,3,4,,6,5,,2,1,,7,8,,6,5,,7,8,,3,4,,4,
{8}3b,,2b,,1b,4/5,3x-8[8:1]/7x-3[8:1],,
{24}3b/7b,,,,,,1x/5x,,2,4x,,7,5x-1[8:1],,,3/4,,,5/6,,,B6/B7,,,
{24}2x/7x,,8,1x>4[8:1],,6,5x-7[12:1],,8,1x-5-3[24:5],,,5,,,1,,,8,,,2x/7x>2[8:1],,,
{24}4b/5b,,,7-5[12:1],,,3-8[8:1],,3,7v4[8:1],,,3,,,7,,,2,,,5/6,,1,
{24}8<5[8:1],,3,4-2[12:1],,1,8-4-6[24:5],,,4,,,8,,,1,,,1x-5[8:1],,2,8-6[12:1],,7,
{24}1b,,,8,,,3,,3,4-8[8:1],,2,1>3[12:1],,3,4<7[8:1],,,1,,,4,,,
{24}2,,,1/8,,6,5>2[8:1],,3,4,,6,5-1[8:1],,,7-3[8:1],,,5,,,7,,,
{24}2,,,7/8,,6,5,,3,4-8[8:1],,2,1-5[8:1],,3,4,,,1,,,6>4-8[4:1],,,
{24}3h[8:3],,,,,,,,,,,,{32}2,,2,,8,,8,,1,7,1,7,1,7,1,7,
{8}1b-6b[8:1],2b-5b[8:1]/5b,1b<7b[12:1]/4b,2b>4b[12:1],1b-5b[8:1],2b,1b,B2/B3,
{8}3b/8b-3b[8:1],7b-4b[8:1]/4b,8b>2b[12:1]/5b,7b<5b[12:1],8b,7b,1x,Cf/B3/B4/B7/B8,
{24}2b/6b,,,4/5,,,3,,3,4,,6,5>2[8:1],,7,8-4[8:1],,6,5,,,8,,1,
{24}1-3[12:1],,2,8-4[8:1],,7,1-5[8:1],,,8,,,1,,,6,,6xh[8:1],,,3,4,,4,
{24}2b,,,4/5,,6,5,,8,1-5[8:1],,3,4-2[12:1],,2,1<6[8:1],,,4,,,1,,,
{24}3bh[8:1],,,5,,,4,3,5,4,6,5,7<4[8:1],,,1-6-2[4:1]/8,,,2/7,,,1,,,
{24}5bh[8:1],,,,,,1/6,,7,8-4[8:1],,3,4-2[12:1],,7,8-6b[12:1],,,5-1[8:1],,,8-4b[8:1],,,
{24}5>2[8:1],,,8,,,5,,,7,,,1,,1,8,,8,2-5[8:1],4,2,7,5,7,
{4}2b,
E
