&title=Now or Never
&artist=CHEMISTRY&m-flo
&first=0
&des=安心の不可思議な漫遊喜劇
&lv_5=13+
&inote_5=(120)
{1},,,,
{1}4-1[2:1],
{1}6<1[2:1],
{2}5<8[2:1],4>1[2:1],
{1}6>3[2:1],
{1}8-5[2:1],
{1}2>5[2:1],
{2}1>4[2:1],8<5[2:1],
{1}2<7[2:1],
{16}2h[8:1],,3,3,2,,5,,4,36,,6,73,,,,
{16}65,,12,,3,3,4,4,5h[8:3],,,,7h[8:1],,,,
{16}18,,76,,18,,23,,8,27,,2,38,,7,,
{16}4,,6,6,5-2[8:1],,,,5/8<5[8:1],,,,8,,,,
{16}7h[8:1],,6,6,7,,4,,5,63,,3,26,,,,
{16}34,,87,,6,6,5,5,4h[8:3],,,,2h[8:1],,,,
{16}81,,23,,81,,76,,1,72,,7,61,,2h[8:7],,
{8}7,,7,,7,,6h[16:1],6h[16:1],
{24}1>4[8:1],,,,,,,,,5<8[8:1],,,,,,3<6[8:1],,,,,,,,,
{24}7-2[8:1],,,,,3-6[8:1],,,,,,,,,,1-5[8:1],,,,,,,,,
{24}8h[24:42],,,,,,,,,4-7[8:1],,,,,,4,,,,,,,,,
{24}4h[24:5],,,,,,,,,,,,,,,5,,,{32}5,4,3,2,1-5[8:1],8,7,6,
{24}5-1[8:1],,,,6,,,,,7,,,,,7h[6:1],,,,,,,,,,
{24}7<4[8:1],,,,,74,,,,2-7[8:1],,,,,,2,,,6-3[8:1],,,,,,
{24}6-2[8:1],,,,,6,,,,1-4[8:1],,,,,,1-5[8:1],,,1,,,,,,
{24}3>8[8:1],,,,,3,,,,5-1[8:1],,,,,,5,,,4,,,,,,
{4}1-5[8:1]/2,1h[8:1],1/8-4[8:1],8h[8:1],
{4}7-3[8:1]/8,7h[8:1],1-5[8:1]/8,1h[8:1],
{4}6>3[8:1]/7,6h[8:1],6/5<8[8:1],5h[8:1],
{4}4>1[8:1]/5,4h[8:1],6<1[8:1]/5,6h[8:1],
{8}5/4-1[8:1],5,45,5,6/5-2[8:1],6,56,6,
{4}7/8-5[8:1],1-5[8:1]/8,1-4[8:1]/8,12,
{8}6-1[8:1]/5,5,65,5,5-8[8:1]/4,4,54,4,
{32}7,6,5,,,,,,7,6,5,,,,,,7,6,5,4,3,2,1,8,7,6,5,4,3,2,1,8,
{16}7b,,1>4[8:1],,,,1,,8b-5[8:1],2-5[8:1],5<8[8:1],5>2[8:1],,,,,
{16},,8<5[8:1],,,,8,,1-4[8:1],1-6[8:1],1,1,,,,,
{16}2>5[8:1],,1,1,,,,,4-8[8:1],,5,5,,,6,,
{16}2>5[8:1],,1,1,,,8<5[8:1],,8,,8>3[8:1],,8,,8,,
{16},,8<5[8:1],,,,8,,1b-4[8:1],7-4[8:1],4>1[8:1],4<7[8:1],,,,,
{16},,1>4[8:1],,,,1,,5-8[8:1],5-2[8:1],5,5,,,,,
{16}7-2[8:1],,5,7,,,4,,2<7[8:1],,4,2,,,5,,
{4}6<1[4:1],1>4[4:1],4<7[4:1],7,
{16}8>3[8:1],,6,6,8,,6,,4,35,,6,73,,,,
{16}65,,12,,5-8[8:1],4,1,2,5-1[8:1],,,,5,,,,
{16}1-4[8:1]/8,,3,,1/8-5[8:1],,6,,1-4[8:1]/8,1,,8,18,,6,,
{16}1,,7,,8>3[8:1],5,3,6,8-4[8:1],,7,,8,,,,
{16},,6,5,6,4,7,4,6,5,7,4,83,,2,2,
{16}8-4[8:1],1,7,2,8,,1,5,2,6,3,7,,,1,1,
{16}1h[16:3],,8<5[8:1],7,,,,,3,1,2,4,3,8-4[8:1],2,5-1[8:1],
{16},8,,5,,,2,1>4[8:1],2,,8,18,,6h[8:1],,8,
{16},7,5,6,8,7,4h[16:2],,{32}6-2[8:1],5,4,3,2,1,8,7,6h[8:1],,,,,,,,
{16}7,3,8,2,1>4[8:1],,82,,1<6[8:1],5,5,,1-5[8:1],5,5,,
{16}1-4[8:1],7,6,,1,8,7,,7,7>2[8:1],7,7,,7,,4,
{16},3,3,,2,,8,1,8,1,8,1,,27,,8-4[8:1],
{16},1,2,8,1,,3,,1/2>5[8:1],3,,8,,7,,6,
{16},7,8,,7-2[8:1],,6h[8:1],,7,,8,8,,12,,2,
{16}1,3,8,4,7,5,6,,6-1[8:1],,8,8,,3,,3,
{16}1,3,7,3,5,3,1-5[8:1],3,7,,6,6h[8:1],,8,,,
{16},,5,5,2,2h[8:1],,1,2,1>4[8:1],2,1,,18,,7,
{16}7,7,5,5,6,6,4,4,5,5,3,3,,24,,1,
{16},7,8-5[8:1],,12,,8,,4<7[8:1],,2h[16:1],,,,3,3,
{16}8,8,2,2,7,7,1,1,6,6,8,8,,,,,
{4}4-8[8:1]/3,4h[8:1],4/5-1[8:1],5h[8:1],
{4}6-2[8:1]/5,6h[8:1],4-8[8:1]/5,4h[8:1],
{4}7>2[8:1]/6,7h[8:1],7/8<5[8:1],8h[8:1],
{4}1>4[8:1]/8,1h[8:1],7<4[8:1]/8,7h[8:1],
{8}8-5[8:1]/1,1,81,1,1-6[8:1]/2,2,12,2,
{4}2-5[8:1]/6,2-7[8:1]/6,2-5[8:1]/6,2/6,
{8}3-8[8:1]/4,4,3/4,4,4-1[8:1]/5,5,45,5,
{32}8/5h[32:2],1,2,,,,,,1/6h[32:2],2,3,,,,,,73,4,5,6,7,8,1,2,3,4,5,6,7,8,1,2,
{16}3b,,8<5[8:1],,,,8,,2b-5[16:1],2-6[16:1],5-1[16:1],5-8[16:1],,,,,
{16},,4>1[8:1],,,,4,,8<5[8:1],8-3[8:1],8,8,,,,,
{16}7-4[8:1],,8,8,,,,,5<8[8:1],,4,4,,,3,,
{16}7-4[8:1],,8,8,,,1-4[8:1],,1,,1-6[8:1],,1,,1,,
{16},,4>1[8:1],,,,4,,6b-1[16:1],6-2[16:1],1-5[16:1],1-4[16:1],,,,,
{16},,8<5[8:1],,,,8,,4>1[8:1],4-7[8:1],4,4,,,,,
{16}2<7[8:1],,4,2,,,5,,7-2[8:1],,5,7,,,4,,
{4}3-8[4:1],8-5[4:1],5-2[4:1],2,
{16}7,,2,1,,7,8,,3,4h[16:3],,,1,8,2h[8:1],,
{48}1,8,7,6>3[8:1],,,,,,3,,,,,,,,,2,1,8,7,,,,,,15,,,,,,,,,7h[48:12],,,,,,,,,,,,
{48}8,1,2,3<6[8:1],,,,,,6,,,,,,,,,7,8,1,2,,,,,,84,,,,,,,,,2h[48:12],,,,,,,,,,,,
{48}8,7,6,5-1[8:1],,,,,,1<6[8:1],,,,,,,,,,,,,,,4,3,2,1,,,,,,1/5h[48:15],,,,,,,,,,,,,,,
{16}2,,6,5,,3,4,,7,8,,6,5,6,5,,
{48}78,,,,,,,,,5/8,1,2,3-8[8:1],,,,,,8,,,,,,,,,7,6,5,4,,,,,,15,,,,,,,,,,,,
{48}21,,,,,,,,,4/1,8,7,6-1[8:1],,,,,,1,,,,,,,,,2,3,4,5,,,,,,84,,,,,,,,,,,,
{48}8,7,6,5<8[8:1],,,,,,8-4[8:1],,,,,,,,,,,,,,,3,2,1,8,,,,,,1/5h[48:15],,,,,,,,,,,,,,,
{16}2,,7,8,,2,1,,6,5h[16:3],,,8,1,7h[8:1],,
{48}1,2,3,4-8[8:1],,,,,,8,,,,,,,,,8,7,6,5,,,,,,15,,,,,,,,,2h[48:12],,,,,,,,,,,,
{48}8,7,6,5-1[8:1],,,,,,1,,,,,,,,,1,2,3,4,,,,,,84,,,,,,,,,7h[48:12],,,,,,,,,,,,
{48}2,3,4,5-2[8:1],,,,,,2-6[8:1],,,,,,,,,,,,,,,7,8,1,2,,,,,,8/4h[48:15],,,,,,,,,,,,,,,
{16}7,,3,4,,6,5,,2,1,,3,4,3,4,,
{48}48,,,,,,,,,4/8,7,6,5<8[8:1],,,,,,1,,,,,,,,,1,2,3,4,,,,,,84,,,,,,,,,,,,
{48}48,,,,,,,,,8/4,3,2,1>4[8:1],,,,,,5,,,,,,,,,5,6,7,8,,,,,,48,,,,,,,,,,,,
{48}7,6,5,4-7[8:1],,,,,,7-3[8:1],,,,,,,,,,,,,,,2,1,8,7,,,,,,15,,,,,,,,,,,,,,,
{16}6h[8:1],,7,7,6,,1,,8,72,,2,37,,,,
{16}21,,56,,7,7,8,8,1h[8:3],,,,3h[8:1],,,,
{16}54,,32,,54,,67,,4,63,,6,74,,3,,
{16}8,,2,2,1-6[8:1],,,,1/4>1[8:1],,,,4,,,,
{16}7-3[8:1],,1-5[8:1],1,7<4[8:1],,1,,7,3-7[8:1],,3,3h[8:1],,,,
{16}3,,6h[8:1],,4-8[8:1],5,2,1,4b>1[8:1],,,,4,,,,
{16}2>5[8:1]/6,,51,,2/6-1[8:1],,8,,2>5[8:1]/6,2,,26,6-2[8:1],,8-4[8:1],,
{16}6,,8,,7-4[8:1],5,7-3[8:1],1,7b-2[8:1],,7,,7,,,,
