&title=CYCLES
&artist=Masayoshi Minoshima feat. 綾倉盟
&first=0
&des=hazz
&lv_6=13+
&inote_6=(135)
{1},
{16}
27,,,,3,4,,,27,,,,6,5,,,
27,,,,3,4,,,8-3[8:1]/1,,,,78,,,,
5-2[8:1]/4,,,,6,6,,,7v4[8:1],,,,1,1,,,
5v7[8:1]/2v5[8:1],,,,5-1[8:1],,,,5/7>2[8:1]*<4[8:1],,,,7,,,,
35,,4,,6,5,,5,7h[8:1],,8,,1,8,,8,
2h[8:1],,1,,3,4,,5,4-8[8:1],,,,6,,,,
17,,8,,2-5[8:1],1,,1,2,,6,,7-4[8:1],8,,8,
7,,3,,2,1,,,{16}8-3[8:1]/1-6[8:1],,,,8b/1b,,,,
5-1[8:1]/4,,6,,7,,8,,27,,3,4,,6,5,,
4-8[8:1]/5,,3,,2,,1,,72,,6,5,,3,4,,
45,,3,4,2,,31,,8,1,7,,68,,7,5,
6qq4[16:3],,5,,4q1[16:3],,3,,2,,,,,,31,,
8-3[8:1],1,7h[8:1],,8,,6,,54,,3,4,,6,5,,
4-7[8:1],5,3h[8:1],,4,,2,,81,,2,1,,3,4,,
54,,6,5,7,,68,,1,8,2,,31,,2,4,
3pp5[16:3],,4,,5p8[16:3],,6,,7,,,,,,7,,
1<6[8:1],8,,2,1,,3,,5>2[8:1],4,,6,5,,8,,
1pp3[8:1],,1qq7[8:1],,1-5[8:1],,,,,,,,6,,4,,
8q4[8:1],1,,7,8,,6,,4q8[8:1],5,,3,4,,2,,
1pp3[8:1],,1qq7[8:1],,1-5[8:1],,,,,,,,6,,4,,
8>3[8:1],1,,7,8,,6,,4<7[8:1],5,,3,4,,1,,
8qq6[8:1],,8pp2[8:1],,8-4[8:1],,,,,,,,3,,5,,
1p5[8:1],8,,2,1,,3,,5p1[8:1],4,,6,5,,7,,
8qq6[8:1],,8pp2[8:1],,8-4[8:1],,,,,,,,26,,,,
3-6[8:1],,2,,1-4[8:1],,8,,7-5[8:1],,,,3qq4[4:1],,,,
4<8[4:1],,,,8q5[4:1],,,,5q1[6:1],,,,8<5[8:1],,,,2q6[8:1],,,,1>4[8:1],,,,8b,,,,6pp5[4:1],,,,
5>1[4:1],,,,1p4[4:1],,,,4p8[6:1],,,,1>4[8:1],,,,7p3[8:1],,,,8<5[8:1],,,,1b,,,,2pp1[4:1],,,,
1<5[4:1],,,,5p8[4:1],,,,8>4[4:1],,,,4qq5[4:1],,,,5<1[4:1],,,,1>4[16:3],,,,5b,,,,8qq1[4:1],,,,
,,,,4qq5[4:1],,,,,,,,7-3[8:1],,,,
5>2[8:1]*<8[8:1],,,,5-1[8:1],,,,7b,,,,6pp5[4:1],,,,
5>1[4:1],,,,1p4[4:1],,,,4p8[6:1],,,,1>4[8:1],,,,7p3[8:1],,,,8<5[8:1],,,,1b,,,,3qq4[4:1],,,,
4<8[4:1],,,,8q5[4:1],,,,5q1[6:1],,,,8<5[8:1],,,,2q6[8:1],,,,1>4[8:1],,,,8b,,,,7<5[8:1],,4,3,
2,,,,1>3[8:1],,4,5,6,,,,8<6[8:1],,5,4,
3,,,,2>4[8:1],,5,6,7,,,,8<6[8:1],,5,4,
{8}
3,,5-7[8:1],1,1-5[8:1],,8,7,
6-4[8:1],,6,3,1-5[8:1]/2,,8,7,
6-4[8:1],,,1,1pp4[4:3],,,,
6,,7,,8<5[8:1],,1,2,
3-5[8:1],,,8,8qq5[4:3],,,,
3,,2,,1>4[8:1]*<6[8:1],,,,
7-3[8:1],,,1,1-5[8:1],,,6,
7-4[8:1],8,1-6[8:1],2,3,,45,3,
2>5[8:1]/1,,,8,8<5[8:1],,,3,
2-5[8:1],1,8-3[8:1],7,6,,6/5<8[8:1],4,
{16}
3b/5,,2,,2-5[8:1],1,,1,2,,6,,7-4[8:1],8,,8,
7,,3,,1>4[8:1]/2,,8,,17,,,,3/5>1[8:1],,6,,
7b/5,,6,,8-3[8:1],5,,5,8,,4,,2-5[8:1],1,,1,
2,,6,,8<5[8:1]/7,,1,,82,,,,6/4<8[8:1],,3,,
2b/4,,3,,1-6[8:1],4,,4,1,,5,,7-4[8:1],8,,8,
7,,3,,1-5[8:1]/2,,8,,17,,,,6/4>1[8:1],,53,,
2b/4,,,,8<5[8:1]/2,,71,,6b/8,,,,6/4-7[8:1],,53,,
4-1[8:1]/2,,3,,64,,7,8,,2,1,,1-5[8:1]/8-4[8:1],27,63,,
1b/8b,,,,2>5[8:1],1,3,,28,,,,7-5[8:1],,8,,
3-1[8:1],,2,,4-8[8:1],,5,,2b,,,,2>5[8:1],1,3,,
82,,,,7<4[8:1],8,6,,71,,,,2-4[8:1],,1,,
6-8[8:1],,7,,5-1[8:1],,4,,7b,,,,6/8<5[8:1],,17,,
2b/8>3[8:1],,,,6/8<5[8:1],,7,,4b-7[8:1]/8,,,,4-1[8:1]/2,,3,,
4/8b-3[8:1],,,,6/8-5[8:1],,7,,8/4b-7[8:1],,,,2/4-1[8:1],,3,,
4b-7[8:1]/6,,,,,,,,5-2[8:1],,,,,,,,
4<7[8:1],,,,,,,,5>2[8:1],,,,,,,,
1b>6[8:11]/5b<2[8:11],,,,,,,,,,,,,,,,,,,,,,,,,,,,
E
