&title=Infinite Strife
&artist=BlackYooh vs. siromaru
&first=0.04
&des=Gethan vs. G35AN
&des_5=Gethan vs. G35AN
&lv_5=14.8
&inote_5=(198){4},,,,{2}5/4>5[4:11],
5h[2:1],
,4h[2:1],
,3h[2:1],
,6/2h[2:1],
B6,5/1h[2:1],
B5,4/8h[2:1],
B4,3/7h[2:1],
B3,2/6h[2:1],
{8}3b,{16}3,4,{8}3,{16}5,4,{8}5,{16}3,4,{8}3,{16}6,5,
{8}6,{16}3,4,{8}2,{16}5,4,{8}6,{16}2,1,{4}2-5[8:1],
2/8b,{8}6,{16}6,5,{8}6,{16}4,5,{8}4,{16}6,5,
{8}7,{16}3,4,{8}2,{16}7,8,{8}7,{16}2,1,{4}2>5[8:1],
2/8,{8}7,7,7/5,7,7/4,7,
3/7,7,7/2,7,1/7-4[8:1],7,{4}7/8,
{8}1,1,{16}1,4,1,4,2,5,2,5,3,6,3,6,
{8}B4,B6/E6,B2/E2,B8,{16}E3,B3,B5,E6,{8}C,B7/E8,
{1}1b>4qq5<8[2:15],
8xh[2:1],
6xh[1:1],
,4xh[2:1],
{8}4x,,,3,,,{4}2,
{1}1xh[4:3],
{2}2,3h[2:1],
{4}8,8,8/3,8,
4/8<5[2:1],4,3,2,
5/1>4[2:1],5,6,7,
4/8<5[2:1],4,3,2,
1/5,{8}2,2,4,4,3,3,
6,6,5,5,8,8,1,1,
{16}7,8,7,8,6,1,6,1,4,3,4,3,5,2,5,2,
E4,E5,E6,E7,E8,E1,E2,E3,6/E4,7,8,1,2,3,4,5,
{1}6pp1<4>1<6>3>8[4:31]*pp1<4b[4:15]`2bxpp5>8[4:15],
,,,,,,,{4}3b,
{8}6,5xh[4:1],,7,,2,
{4}1h[4:1],{8}3,4h[4:1],,2,,7,
{4}8-4[8:1],{8}8,1-3[8:1],,7/1,,6,
{4}5-1[8:1],{8}5,6-8[8:1],,6/4,,2,
8x,8,7/3,7,6/2,6,5/1,5,
8/4,4/8,8/4,4/8,{16}4,1,5,2,6,3,7,4,
{2}8xh[2:3],4h,
3h,2h,
{4}1b/8b,{8}3/7-4[8:1],4V61[4:1],7,2-6[8:1],,2,
,8,,7,1>4[8:1],8,1,6,
{4}5b,{8}7/3-8[8:1],8V25[4:1],3,6-2[8:1],,6,
,4>1[8:1],,7,{4}8,{8}1/6,2,
{4}3/8b,{8}7-4[8:1],4V61[4:1],7,2-6[8:1],,2,
,8h[4:1],,5,4/8,3,2/6,1,
{16}7,8,{8}7,6-1[8:1],1V74[4:1],6,3-7[8:1],,3,
,5h[4:1],,8,1/5,2,3/7,4,
{16}6b,5,{8}6,7-4[8:1],4V61[4:1],7,2-6b[8:1],,2,
,8h[4:1],,5,4/8,3,2/6,1,
{16}7b,8,{8}7,6-1[8:1],1V74[4:1],6,3-7b[8:1],,3,
,5h[4:1],,8,{16}1,5,2,6,3,7,4,8,
{4}5b-2[8:1],{8}5,8-4[8:1],,8/1,,2-6[8:1],
,2/1,,8,5/7,4,3/6,5,
4-8[8:1],4,7-4[8:1],7,1-5[8:1],1,6-2b[8:1],6,
,4,,8/4<3[4:1],{16}E5,E6,E7,E8,E1,E2,E3,E4,
6bx,5,6,5,7,4,7,4,8b,3,8,3,1,2,1,2,
8b,7,6,5,8,1,2,3,5b,6,7,8,5,4,3,2,
8b,7,6,5,3,4,3,4,2,5,2,5,1,6,1,6,
8b,7,1,6,8,7,1,6,2b,5,3,4,2,5,3,6,
4b,7,5,6,4,7,2,1,3x,8,4,7,5,6,4,5,
3x,4,2,5,3,6,4x,8,3,7,1,6,2x,4,3,5,
4bx,6,3,7,2,8,1,7,2x,6,4,5,3,6,4,5,
3x,2,1,8,4,5,6,7,8/1,2,3,4,5/1,8,7,6,
3bx,4,2,5,3,6,4,5,3bx,6,2,7,1,8,2,7,
4bx,5,3,6,4,5,3,4,2bx,5,1,6,8,7,1,6,
2bx,5,3,4,2,5,4,6,3,7,2,8,1,7,2,6,
4bx,5,3,6,2,7,1,8,2bx,6,3,5,4,7,3,6,
1bx,8,2,7,4,5,3,6,2,4,3,5,1,7,2,6,
3x,5,4,6,5,7,4,8,3x,7,2,6,1,5,8,4,
1x/5x,6/2,7/3,8/4,5,6,7,8,1/5,2/6,3/7,4/8,5,6,7,8,
1bx/5bx,6/2,7/3,8/4,1,2,3,4,5x/1,6/2,7/3,8/4,1s5b[4:1],2,3,4,
{2}5/1b,{8}3b/7b-5[8:1],5x-1[8:1],7,3,
{4}2-6[8:1],{8}2,1,{4}4/8>6[4:1],8x,
2xv5[8:1],6/2x,{8}7,{16}5x,6,5,6,{8}4,
{16}7b,8,1,2,3,4,5,6,1b/7,2,3,4,5,6,7,8,
{4}1/5b,{16}3,4,3,4,{8}2x>5[8:1],{16}1,1,{4}2,
{8}7v4[8:1],8,7,1,{12}2xh,2x,4xh,4x,3xh,3x,
{4}6xh[8:1],{12}5,7h,3,1h,4,6h,2,8h,5,
{1}7b-4-6[2:1]/3xv8-2[2:1],
{4}4/E6h[2:3],4,3,3,
2,2,{2}1-5[8:1],
{4}6/E4h[2:3],6,7,7,
8,8,{2}1-5[8:1],
{8}3,3,2/5,2,1,1,8/3,8,
7,7,1/6,6,5,5,4/7,4,
3,3,2/6,2/6,5/1,5/1,{16}8,4,8,4,
8,4,8,4,8,1,2,3,{24}4,5,6,7,8,1,{32}2,3,4,5,6,7,8,1,
{1}2-6b[2:3],
E8fh[4:3]/B7h[2:1]/B8h[16:9]/A7h[8:5]/A8h[16:11],
{4}4b/8x,{16}2,1,{8}2,{16}8b/3,,,6/2b,,,{8}7b/3,
5/1b,{16}3,4,{8}3,6,{16}4b/7,,,5b/2,,,{8}4/6b,
3b/8,{16}2,1,,2,{8}7,4,{16}6,5,{8}7-3[8:1],8-2[8:1],
7-5[8:1],8-4[8:1],7,8,,7,{16}5,5,{8}6,
{4}4b/7b,{16}3,4,3,5,{8}2-6[8:1],1-7[8:1],2,1,
5,4>1[8:1],,4/7<4[8:1],,7/8,{16}1,2,3,4,
1,8,7,6,4,3,2,1,5,6,7,8,{32}2,3,4,5,6,7,8,1,
{4}6b/2,{8}1,{16}7,8,{4}6-2[8:1],6/5qq1[2:1],
{1}5b/8x<2[2:1],
{16}8x-4[16:1],,,8x/2-5b[16:1],,,{8}2x,{16}6bx-1[16:1],,,4x/6,,,{8}5x,
8bx/3bx,{16},,,,2b/1b,1b/2b,3b/8b,,,6b/2,,,{8}7/4b,
{16}5b/3,,,6x/1b,,,{8}2x/8bh[8:3],{24},,,1,2,3,4,5,6,7,8,1,
{8}2b,7,{16}5,6,{8}5,7-3[8:1],8-2[8:1],7,8x,
4x,5x<8[8:1],,5b/2>5[8:1],,2b/1,{16}8,7,6,5,
{8}4/8b,{16}2,1,{8}2,3/7b,{16}6,5,{8}6,8/4b,{16}2,2,
{8}1,7/3b,2/5,{16}3x/4x,3x/4x,6bx/1x,,,7b/B4f,,,{8}2b/B6f,
{16}1,8,1,8,1,8,1,8,1,8,1,8,1,8,1,8,
2,7,3,6,4,5,3,4,2x,7x,5x,6x,1x,8x,{8}3x,
{4}7/2V48[4:1],{8}2/6,7<4[8:1],,7/1,,1-5[8:1],
8h[8:1],1,,7V51[4:1],4-2b[8:1],7,{4}4,
8-4[4:1],1/8,{8}2>5[8:1],1,2,8-6[8:1],
,8/1-5[8:1],,1,7,8,6,1h[8:1],
{4}7bV51[4:1],{8}7/3,2>5[8:1],,8/2,,8-4[8:1],
1h[8:1],8,,2V48[4:1],5-7b[8:1],2,{4}5,
1-5[4:1],8/1,{8}7<4[8:1],8,7,1-3[8:1],
,1/8-4[8:1],,8,{16}3,2,1,8,7,6,5,4,
{8}3b,7,{16}5,6,{8}5,{16}4/8b,,,6/1b,,,{8}7b/3,
5/2,{16}3,4,3,5,{8}2,{16}6/4b,,,8b/1,,,{8}5/2b,
3/7bV51[4:1],8,7,2h[4:1],,8,2-5[8:1],1-6[8:1],
2,1,,4,{16}7,8,6,1,5,2,4,3,
{8}5b,1,{16}6,5,{8}7x,1,{16}3,4,{8}2x,8,
{16}6,5,{8}7x,1h[8:1],8,{16}6x/2b,,,4b/3x,,,{8}2bx/8x,
{4}7bx/1x-5[8:1],{8}1/8x,7x-3[8:1],,7/8x,{4}1x,
4/3x>8[8:1],{8}3/5x,6x>3[8:1],,6x/7x,{4}8x,
{16}1/5x,2,3,4,5,6,7,8,1/6,5,4,3,2,1,8,7,
{24}6/2,3,4,5,6,7,8/4x,1/5x,2/6x,3/7x,8,1,2,3,4,5,6,7,{32}8/2x-6[8:1],3/D4,4/D5,5/D6,D7/6q8[8:23],7/D8,8/D1,1/D2,
{1}2bq4[4:11]*q4[4:11],
E
