&title=鬼天
&artist=DJ TOTTO
&first=-0.235
&des=Noka
&des_5=
&lv_5=13+
&inote_5=(161){4},,{16}5pp6[2:3]*qq4[2:3],5,{8}5,{1},{4},,,{8},3h[8:3],
4,5,
6,4h[8:3],3,5,6,5h[8:3],3,4,
6,{16}1,2,3,4,1,8,7,6,{8}5/4-1[8:1],{4},{1}7qq3[4:3],
{8},1h[2:1],{4},{8},7-3[8:1],{4},{1}5pp8[8:9]*qq2[8:9],
{4},,{8},1-5[8:13],{4},,,{8},{16}8,
8,2,2,{8}1,
,1-5[8:1],,1b,,6h[8:1],{16},7h[8:1]/8h[8:1],{8},1/6,
3h[8:1],{16},2h[8:1]/1h[8:1],{8},8/3,6h[8:1],{16},7h[8:1]/8h[8:1],{8},1/6,
7-4[8:1],3-1[8:1],7,3,8h[8:1],{16},6h[8:1]/4h[8:1],{8},3/7,
1h[8:1],{16},3h[8:1]/5h[8:1],{8},6/2,8/1b,{16},6b/5,{8},4/3b,
{16}2,5,2,5,2,5,2,5,{8}1h[8:1],{16},8h[8:1]/2h[8:1],{8},3/7,
8h[8:1],{16},1h[8:1]/7h[8:1],{8},6/2,1h[8:1],{16},8h[8:1]/2h[8:1],{8},3/7,
2-5[8:1],6-8[8:1],2,6,1h[8:1],{16},3h[8:1]/5h[8:1],{8},2/6,
8h[8:1],{16},6h[8:1]/4h[8:1],{8},7/3,{16}1,2,3,4,5/1,6,
7,8,1/6,2,3,4,5/2,6,7,8,{8}1/7,{16}3,3,{8}4,
{16}6,6,{8}5-1[8:1],4-2[8:1],5,4,8h[16:3],{16},1,{8}7<4[8:1],
{16},8,{8}7,{16}1,2,{8}3h[8:1],4,5/2,{16}6,6,{8}5,
{16}3,3,{8}4-8[8:1],5-7[8:1],4,5,1h[16:3],{16},8,{8}2>5[8:1],
{16},1,{8}2,{16}8,7,{8}6h[8:1],5,4>1[8:1],{16},5,{8}4,
7v4[8:1]*-5[8:1],7,{4},{8}2,1>5[8:1],{16},8,{8}1,
6,6h[8:1],{16}5,4,3,2/1,8,7,{8}4-8[8:1],{16}5,5,{8}4qq3[16:5]*pp5[16:5],
{4},,{8},7,{16}1,1,{8}1,
2/8,{16}1-6[8:1],7,2-5[8:1],8,{4},{8}8b,{16}2,2,{8}1,
{16}7,7,{8}8-4[8:1],3-8[8:1],8,3,5h[16:3],{16},1,{8}6<1[8:1],
{16},4,{8}6,{16}3,3,{8}3,1/2,3/8,{16}7,7,{8}8,
{16}2,2,{8}1-5[8:1],6-1[8:1],1,6,4h[16:3],{16},8,{8}3>8[8:1],
{16},5,{8}3,{16}6,6,{8}6,8/5,1q6[8:1],{16},8,{8}1,
7-3[8:1]*-4[8:1],7,{4},{8}2,1<6[8:1],{16},3,{8}1,
2h[4:1],{16}3,4,5,6,{8}7,1,8p4[8:1],{16},4,{8}8,
1>6[4:1],6,7,8,1,2v5[8:1],,2b/5b,
,7v4[8:1],,7b/4b,,1h[8:1],{16},5h[8:1]/3h[8:1],{8},2/6,
8h[8:1],{16},4h[8:1]/6h[8:1],{8},7/3,1h[8:1],{16},5h[8:1]/3h[8:1],{8},2/6,
1-5[8:1],6-1[8:1],1,6,4h[8:1],{16},1h[8:1]/7h[8:1],{8},2/6,
5h[8:1],{16},8h[8:1]/2h[8:1],{8},7/3,5b/4,{16},8b/6,{8},3b/1,
{16}2,6,2,6,2,6,2,6,{8}1h[8:1],{16},5h[8:1]/6h[8:1],{8},4/7,
8h[8:1],{16},4h[8:1]/3h[8:1],{8},5/2,1h[8:1],{16},5h[8:1]/6h[8:1],{8},4/7,
8q4[8:1],3>8[8:1],8,3,5h[8:1],{16},1h[8:1]/2h[8:1],{8},3/8,
4h[8:1],{16},7h[8:1]/8h[8:1],{8},6/1,{16}5,6,7,8,1/4,3,
2,1,5/8,6,7,8,1/4,3,2,1,{8}8h[4:1]/4h[4:1],{4},{1}1qq5[16:19]/5qq1[16:19],
{4},,{8},1h[4:1]/5h[4:1],{4},{1}3qq5[16:19]/7qq1[16:19],
{4},,{8},1h[4:1]/5h[4:1],{4},{1}2qq3[16:19]/6qq7[16:19],
{4},,{8},{16}3,7,3,7,4,8,
4,8,5,1,5,1,3,7,1,5,{8}4,{16},3/7,{8},6/2,
{16}1v6[8:1]/5-2[8:1],2/6,3/7,4/8,{4},{8}3>8[8:1],{16},4,{8}3,
5,6-1[8:1],{16},5,{8}6,4,3q5[4:1],{16},1,{8}3,
{16}8,7,{8}6-2[8:1],1-5[8:1],6b,1b,8V62[16:3],{16},5,{8}8,
3,3p5[16:3],{16},5,{8}3,{16}1,8,{8}7-3[8:1],{16},8,{8}7,
1,2h[8:1],,{16}5/1<1[8:3],6/2,3/7,8/4,{8}5h[8:3],{4},{8},{16}8,
7/1,2/6,5/3,{8}4-8[8:1],,6/4qq5[8:3],,7-5[8:1],
,7,,1p5[8:1]*v4[8:1],,1b,,2,
{16}2,8,{8}4-8[8:1],,4/1<5[16:3],,1b/2h[4:1],{4},{16}6,
4,{8}8p4[8:1],3v8[8:1],8b,3b,6pp5[4:1],{16},4,{8}6,
3,2v5[8:1],{16},1,{8}2,8,4/6<1[8:1],{16},5,{8}6,
3,2-5[8:1],1,2bqq4[8:3],8,7b-5[8:1],{4},{8},8-6[8:1],
1-5[8:1],8b,1b,8,{16}8,1,{8}7,
{16}2,1,{8}4p8[8:1],{16}5,5,{8}4b,,7,{16}7,8,{8}5,
{16}2,1,{8}4>1[8:1],8<5[8:1],4b,8b,4,{16}4,6,{8}1,
{16}5,3,{8}8bq4[8:1]*>3[8:1],,8b,,{16}3/7,4,5/6,7,{8}4/8,
2b/6b,{16}7/3,6,5/4,3,{8}6/2,8b/4b,1h[8:7]/5-8[8:1],{4},{8},7h[8:3],
{4},{8},8qq5[8:27]/3qq4[8:27],{1},,,{4},,,{16}4/5,
4/5,{8}5qq3[8:21]/4pp6[8:21],
