&title=O-TA-O-TA WORLD
&artist=茅原実里; 佳村はるか; 小岩井ことり
&first=0.14
&des=reflectW
&lv_5=12+
&inote_5=(128)
{1},
{16}3h[4:1],,,,4h[4:1],,,,5>1[16:3],,,1,,,7,,
{16},,65,,6-8[8:1],,,,1-5[8:1],,,,2,,,,
{16}6h[4:1],,,,5h[4:1],,,,4<8[16:3],,,8,,,2,,
{16},,34,,2-4[8:1],,,,5-1[8:1],,,,6,,,,
{16}27,,,,75,,64,,35,,2,1,2,,8,,
{16}1V35[12:2],,1,,8,,7,,8V64[12:2],,8,,1,,2,,
{16}1,,3,4,2,,6,5,7,,1,8,2,,46,,
{16}1h[16:2]/5h[16:2],,,,3h[16:2]/7h[16:2],,,,{12}2-5[12:1]/6-1[12:1],26,26,2b/6b,,,
{16}3-8[8:1],,,,43,,,,6-1[8:1],,,,56,,,,
{16}3-8[8:1],,,,43,,,,6<3[12:2],,,,5/6b,,,,
{16}4,5,4h[4:1],,6,,6h[4:1],,8,,8,,2,,5,5,
{16}1h[8:1],,7,7,3h[8:1],,1,,5-1[8:1],,3,,5,,,,
{16}24,,24,,24,,3,4,57,,57,,57,,6,5,
{16}41,,41,,41,,3,4,5/8<4[8:1],,58,,5/8b,,,,
{16}3,4,3,4,2,5,2,5,4,7,4,7,5w1[8:1],6,5,6,
{16},,,,37,,26,,1>5[8:1]/5<1[8:1],,,,,,,,
{16}34,,34,,56,,56,,2-5[8:1],2,6-1[8:1],6,2,,6,,
{16}3h[8:1],,4,,6h[8:1],,5,,7^4[8:1],7,8^3[8:1],8,7,,8,,
{16}5,4,5,,36,,27,,1v4[8:1],1,5-8[8:1],5,1,,5,,
{16}3,,26,,15,,48,,3bq7[8:1]/7bq3[8:1],,,,3b/7b,,,,
{16}2,1,2,1,3,8,4,,6-1[8:1],,4,4,6,,,,
{16}7,8,7,8,6,1,6,1,5-1[8:1],,6,6,5,,,,
{16}28,,37,,46,,35,,1/7h[16:3],,,8h[16:3],,,1<3[4:1],,
{16},,3,,2,,1,,{12}8^3[12:1]/4^7[12:1],84,84,84,,,
{16}4b-1[8:1]/5b-8[8:1],,,,4b/5b,,,,34,,1,,56,,8,,
{16}34,,1,,56,,8,,45,,27,,,27,,,
{16}4b^1[8:1]/5b^8[8:1],,,,4b/5b,,,,35,,1,,46,,8,,
{16}3h[8:1]/5,,1,,4/6h[8:1],,8,,{12}3/5,3/5,3/5,
{8}4,4,
{16}4v1[12:1]*v7[12:1],,,,4b,,,,3h[8:1]/4,,1,,4h[8:1]/3,,1,,
{16}6h[8:1]/5,,8,,5h[8:1]/6,,8,,34,,17,,56,,28,,
{16}71,,62,,53,,64,,8/2h[16:3],,,1h[16:3],,,8>6[4:1],,
{16},,6,,7,,8,,{12}1-6[12:1]/5-2[12:1],15,15,15,,,
{16}1-4[8:1]/7,,,,5,,6,,7-4[8:1],8,,8,7,,1,,
{16}35,,35,,46,,46,,5-1[8:1]/7-4[8:1],,,,57,,,,
{16}8-5[8:1]/2,,,,4,,3,,2-5[8:1],1,,1,2,,8,,
{16}15,,48,,37,,26,,{32}8b/7b,16,25,34,,,,,1b/2b,38,74,65,,,,,
{16}3,4,2,,6,5,7,,1-5[8:1],2,3,4,,,3h[8:1],,
{16}4,2,3,,6,8,7,,1v7[8:1]/2V46[8:1],,8,8,,,,,
{16}35,,17,,46,,28,,3/7h[16:3],,,1h[16:3],,,5pp2[4:1],,
{16},,2,,3,,4,,{12}1p5[12:1]/5p1[12:1],15,15,15,,,
{16}4bV68[8:1]/5bV31[8:1],,,,4b/5b,,,,{32}4h[8:1],,,,8,7,6,,4h[8:1],,,,8,1,2,,
{32}4h[8:1],,,,8,7,6,,4h[8:1],,,,8,1,2,,4,,,,36,,,,,,36,,,,,,
{16}4b-8[8:1]/5b-1[8:1],,,,4b/5b,,,,{32}5h[8:1],,,,1,2,3,,5h[8:1],,,,1,8,7,,
{32}5h[8:1],,,,1,2,3,,5h[8:1],,,,1,8,7,,{24}5,,,37,,,48,,,48,,,
{16}4v1[12:1]*v7[12:1]/8,,,,4b,,,,{32}1h[8:1],,,,7,6,5,,1h[8:1],,,,6,5,4,,
{32}1h[8:1],,,,7,6,5,,1h[8:1],,,,6,5,4,,1h[8:1],,,,7,6,5,,1h[8:1],,,,6,5,4,,
{16}1,,82,,53,,71,,6/2h[16:3],,,8h[16:3],,,4>7[4:1],,
{16},,7,,6,,5,,{12}84,15,26,3b/7b,,,
{32}18,27,36,45,,,,
