&title=撥条少女時計
&artist=葉月ゆら
&first=0
&des=おにねこ
&wholebpm=134
&lv_2=5
&lv_3=8
&lv_4=12+
&lv_5=13+
&lv_6=13+
&inote_2=(134)
{1},
{4}18,,,,,,,,
{4}5,,5,,5,,5,,
{4}4,,4,,4,,4,,
{4}6,,6,,6,,6,,
{4}3,,3,,3,,3,,
{4},,,,
{4}18,18,27,27,
{4}3,4,3,4,3,4,34,3b/4b,
{4}6,5,6,5,6,5,65,6b/5b,
{4}3,4,3,4,3,4,34,3b/4b,
{4}6,5,6,5,6,5,65,6b/5b,
{4}3>8[4:2],,,,6<1[4:2],,,,
{4}4p7[4:2],,,,5q2[4:2],,,,
{4}3>8[4:2],,,,6<1[4:2],,,,
{4}2q5[4:2],,,,7p4[4:2],,,,
{4}3>8[4:2],,,,6<1[4:2],,,,
{4}4p7[4:2],,,,5q2[4:2],,,,
{4}3>8[4:2],,,,6<1[4:2],,,,
{4}2q5[4:2],,,,7p4[4:2],,,,
{4}3/5h[4:2],,7,,
{4}6/4h[4:2],,2,,
{4}4/5h[4:2],,7,,
{4}5/4h[4:2],,2,,
{4}1,1,1,,
{4}8,8,8,,
{4}27,,36,,45,,18,,
{4}8w4[4:2],,,,
{4}78,78,12,12,
{4}3,3,6,6,4,4,5,
{4},38,38,61,61,
{4}4,5,4h[4:1],,
{4}6,6,3,3,5,5,4,
{4},61,61,38,38,
{4}5,4,5h[4:1],,
{4}3,3,3,,
{4}6,6,6,,
{4}24,3,75,6,
{4}45,45,3h[4:1]/6h[4:1],,
{4}2,2,2,,
{4}7,7,7,,
{4}13,2,86,7,
{4}46,53,46,53,
{4}4-1[4:2]/6-1[4:2],,,,
{4}87,8b/7b,12,1b/2b,
{4}4,4,4,4,4,4,4,4,
{4}4,4,4,4,4,4,4,4,
{4}5,5,5,5,5,5,5,5,
{4}5,5,5,5,5,,,3b/6b,
{4}3,3,6,6,4,4,5,
{4},38,38,61,61,
{4}4,5,4h[4:1],,
{4}6,6,3,3,5,5,4,
{4},61,61,38,38,
{4}5,4,5h[4:1],,
{4}3,4,3,4,3,4,34,3b/4b,
{4}6,5,6,5,6,5,65,6b/5b,
{4}3,4,3,4,3,4,34,3b/4b,
{4}6,5,6,5,6,5,65,6b/5b,
{4}2-6[4:9]*-6[4:9],,,,,,,,,,
{4},,,,
{4},,,,
{4},,,,
&inote_3=(134)
{1},
{4}18,,,,,,,,
{4}5h[4:1],,3h[4:1],,6h[4:1],,3h[4:1],,
{4}6h[4:1],,4h[4:1],,5h[4:1],,2h[4:1],,
{4}5h[4:1],,3h[4:1],,6h[4:1],,3h[4:1],,
{4}6h[4:1],,4h[4:1],,5h[4:1],,4h[4:1],,
{4},,,,
{4}18,18,27,27,
{4}3,4,5,6,7,8,1,1,
{4}6,5,4,3,2,1,8,8b,
{4}3,4,5,6,7,8,1,1,
{4}6,5,4,3,2,1,8,8b,
{4}3>8[4:2],,,,6<1[4:2],,,,
{4}4p7[4:2],,,,5q2[4:2],,,,
{4}3>8[4:2],,,,6<1[4:2],,,,
{4}2q5[4:2],,,,7p4[4:2],,,,
{4}3>8[4:2],5,5,5,6<1[4:2],4,4,4,
{4}4p7[4:2],5,5,5,5q2[4:2],4,4,4,
{4}3>8[4:2],5,5,5,6<1[4:2],4,4,4,
{4}2q5[4:2],,7,7,7p4[4:2],,2,2,
{4}3/5h[4:2],,7,,
{4}6/4h[4:2],,2,,
{4}4/5h[4:2],,7,,
{4}5/4h[4:2],,2,,
{4}1,1,1,,
{4}8,8,8,,
{4}2b/7b,,3b/6b,,4b/5b,,1b/8b,,
{4}1s5[4:2]/8z4[4:2],,,,
{4}87,34,12,56,
{4}24,3,75,6,4,4,5,
{4}3>8[4:1],,6<1[4:1],,
{4}2,7,2,7,,
{4}75,6,24,3,5,5,4,
{4}6<1[4:1],,3>8[4:1],,
{4}7,2,7<4[4:1],,,
{4}3,3,3-8[8:1],,
{4}6,6,6-1[8:1],,
{4}24,3,75,6,
{4}45,45,3h[4:1]/6h[4:1],,
{4}2,2,2-5[8:1],,
{4}7,7,7-4[8:1],,
{4}13,2,86,7,
{4}46,53,46,53,
{4}4q1[4:2]/6p1[4:2],,,,
{4}8-3[8:1]/7-3[8:1],,1-6[8:1]/2-6[8:1],,
{4}4,4,4,4,4,4,4,4,
{4}4,4,4,4,4,4,4,4,
{4}5,5,5,5,5,5,5,5,
{4}5/4-1[4:3],5,5,5,5,,,3b/6b,
{4}24,3,75,6,4,4,5,
{4}3>8[4:1],,6<1[4:1],,
{4}2,7,2,7,,
{4}75,6,24,3,5,5,4,
{4}6<1[4:1],,3>8[4:1],,
{4}7,2,7<4[4:1],,,
{4}3>8[4:2],5,5,5,6<1[4:2],4,4,4,
{4}4p7[4:2],5,5,5,5q2[4:2],4,4,4,
{4}3>8[4:2],5,5,5,6<1[4:2],4,4,4,
{4}2q5[4:2],,7,7,7p4[4:2],,2,2,
{4}2-6[4:8]*-6[4:8],,,,,,,,,,
{4}4b,,,,
{4},,,,
{4},,,,
&inote_4=(134)
{1},
{4}1b,,,,,,,,
{4}5h[4:2],,3,,2h[4:2],,4,,
{4}6h[4:2],,5,,4h[4:2],,5,,
{4}4h[4:2],,6,,7h[4:2],,5,,
{4}3h[4:2],,4,,5h[4:2],,4,,
{4}3>6[8:5],,,,
{16}4,5,4,5,4,5,4,5,
{8}4-8[8:1],,8b,,
{16}
34,,2,,34,,5,,34,,2,,34,,5,,
3,4,3,,25,,25,,6,,4,,5h[8:1]/7h[8:1],,,,
65,,7,,65,,4,,65,,7,,65,,4,,
35,,35,,6,4,6,,75,,75,,8h[8:1]/1h[8:1],,,,
21,,3,,21,,8,,21,,3,,21,,8,,
2,1,2,,83,,38,,1,,2,,8h[8:1]/1h[8:1],,,,
78,,6,,78,,1,,78,,6,,78,,1,,
2,4,2,4,3,5,3,5,4-8[8:1],,6,,6b,,,,
{8},
6h[4:2],4,4,4h[4:1],,5h[4:1],,3h[4:1],,6h[4:1],,4h[4:2],,
5,,6p2[8:4]*q2[8:4],,,
{16},,,,,,,,,,3q7[8:4]*p7[8:4],,,,,,,,,,,,,,,,,,
{8}
2h[4:2],5,5,5h[4:1],,3h[4:1],,4h[4:1],,2h[4:1],,5h[4:1],,
1qq6[4:3],,,,,
{16},,,,,,5,,,,4qq1[8:4],,,,,,,,,,,,8b,,,,
6,,45,,3,,21,,8,,2,1,2,,83,,
4-1[8:1],,,,6-2[8:1],,,,3-7[8:1],,,,5,,,,
1h[4:2],,5,,5,,5,,5,,15,,26,,37,,
8h[4:2],,4,,4,,4,,4,,84,,73,,62,,
3,,54,,6,,78,,1,,7,8,7,,16,,
5-8[8:1],,,,3-7[8:1],,,,6-2[8:1],,,,4,,,,4bw8[8:1],,,,,,,,
{16}5bw1[8:1],,,,,,,,56,,57,,34,,24,,1b-5[8:1]/8b-4[8:1],,,,,,,,
{8}
3h[8:1]/6h[8:1],,3h[8:1]/6h[8:1],,2bp3[4:2]/7b<4[4:2],,,,,,,,3b/4b,,,,
7h[8:1]/2h[8:1],,7h[8:1]/2h[8:1],,6bq7[4:2]/1b>5[4:2],,,,,,,,7b/5b,,,,
75,6,24,3,1b-5[8:1]/8b-4[8:1],,,,
86,7,13,2,4b-8[8:1]/5b-1[8:1],,,,
{16}34,,34,,25,,52,,16,,16,,78,,78,,1,8,1,8,1,8,1,8,
{16}2,7,2,7,2,7,2,7,
{8}3<6[4:3],,6,,7,,8,,7-3[8:1],,2-6[8:1],,
{12}8bw4[8:1],,,{8},,
21,8,37,6,2/5-1[8:1],,
4-7[8:1],,5-2[8:1],,4q5[4:1],,,,,
6-2[8:1],3,{24},,,{8},3-7[8:1],5,{24},,,{8},
5,14,5,86,7,1>4[8:1]/8v3[8:1],,,,
65,4,73,2,6/1q5[8:1],,
8-3[8:1],,1-6[8:1],,8q1[4:1],,,,,
2q6[8:1],4,{24},,,{8},7p3[8:1],5,{24},,,{8},
1,58,1,62,3,4-8[8:1]/5-1[8:1],{24},,,{8},,
{16}
6,5,6,,47,,47,,3h[8:1],,5h[8:1],,1,,,,
7,8,7,,16,,16,,2h[8:1],,8h[8:1],,4,,,,
5,4,5,,36,,36,,25,,36,,47,,36,,
{8}2-5[8:1],2,8-4[8:1],8,1bw5[8:1],,,,
{16}16,,7,8,7,,16,,2>5[8:1],,1,,,,,,
{16}83,,2,1,2,,83,,7<4[8:1],,8,,,,,,
34,,34,,45,,56,,47,,74,,36,,52,,
3,4,3,4,3,4,3,4,2,5,2,5,2,5,2,5,
{8}1b>4[8:5],,6,,7,,8,,6-2[8:1],,3-7[8:1],,
{12}5bw1[8:1],,,{8},,
{4}
5h[1024:1],,6h[1024:1],,7h[1024:1],,8h[1024:1],,
1h[1024:1]/6v1[4:5],,2h[1024:1],,3h[1024:1],,4h[1024:1],,
5h[1024:1]/2v5[4:5],,6h[1024:1],,7h[1024:1],,8h[1024:1],,
1h[4:3],,2h[1024:1],,
4-8[8:1],5-7[8:1],4bz8[8:1],,
{8}26,7,48,7,6/2-5[8:1],,
6-1[8:1],,2-7[8:1],,6<1[4:1]*>3[4:1],,,,,
4p8[8:1],3,{24},,,{8},5q2[8:1],6,{24},,,{8},
3,26,1,85,1,2-5[8:1]/6v1[8:1],,,,
{8}84,7,62,7,4/8<5[8:1],,
4>1[8:1],,8p4[8:1],,3V17[4:1]*V57[4:1],,,,,
1q5[8:1],3,{24},,,{8},8p3[8:1],6,{24},,,{8},
2,37,4,58,4,37,{24}1b,8b,1b,{8}8b,,
{16}
78,,6,,78,,1,,78,,6,,78,,1,,
7,8,7,,61,,61,,2,,8,,1h[8:1]/3h[8:1],,,,
21,,3,,21,,8,,21,,3,,21,,8,,
71,,71,,2,8,2,,31,,31,,4h[8:1]/5h[8:1],,,,
65,,7,,65,,4,,65,,7,,65,,4,,
6,5,6,,47,,74,,5,,6,,4h[8:1]/5h[8:1],,,,
34,,2,,34,,5,,34,,2,,34,,5,,
6,8,6,8,7,1,7,1,8-4[8:1],,2,,2b,,,,
{2}1-5[4:9],,,,,,,,,,,,,,
&inote_5=(134)
{1},
{4}1b,,,,,,,,
{4}8qq5[4:5],4,5,3,1,1,{8}2h[8:3],,,5,
{4}2pp5[4:5],5,4,6,7,7,{8}8h[4:2],,,,
{4}5qq1[4:5],1,2,8,6,6,{8}7h[8:3],,,3,
{4}7pp3[4:5],4,5,4,2,2,{8}1-5[8:1],,,,
{4}1bV35[8:4]*V75[4:2],,,,
{16}8,2,5,4,7,8,5,3,
{12}1-4[8:1]*-6[8:1],1,1,1b,,,
{16}
5v8[8:1],,4,,3-1[32:3],,4,,5-7[32:3],,4,,3v8[8:1],,4,,
7,6,5,,51,,5,,3-7[8:1]/4-8[8:1],,25,,34,,,,
2v5[8:1],,1,,8-6[32:3],,1,,2-4[32:3],,1,,8v5[8:1],,1,,
2,,2,,2,4,2,,3-8[8:1]/6-4[8:1],,47,,36,,,,
6v1[8:1],,5,,4-2[32:3],,5,,6<8[32:3],,5,,4>1[8:1],,5,,
8,7,6,,62,,6,,4pp6[8:1]/5qq3[8:1],,27,,45,,,,
1-5[8:1],,8,,7-4[8:1],,8,,1-5[8:1],,8,,7<4[8:1],,8,,
3,2,1,8,7,6,5,4,7-3[8:1]/3,26,15,,7b,,,,
{8},
6h[4:2],4,4,4h[4:1],,7h[4:1],,6h[4:1],,8h[4:1],,5h[4:1],,
1,1h[8:1],4p8[8:2],1,,
{16}7,6,5h[8:4],,,,1,,1,,8q4[8:2],,5,,,,6,7,8p4[8:2],,,,,,,,,,
{8}
2h[4:2],5,5,5h[4:1],,3,3h[4:1],1h[4:1],,4,4h[4:1],7h[4:1],,
5,5h[8:1],8p3[8:2],5,,
{16}3,2,1h[8:4],,,,4,,4,,5q2[8:2],,1,,,,2,3,4-7[8:1]*-1[8:1],,,,4b,,,,
8,,35,,1,,46,,2,,6,5,7,,84,,
1-6[8:1]*-5[8:1],,,,1-4[8:1]*-3[8:1],,,,1<6[8:1],,,,1,,3,,
3h[4:1],,6,,8,,3,4,3,,25,,36,,47,,
6h[4:1],,3,,1,,6,5,7,5,6,4,5,3,4,2,
1,,74,,8,,24,,1,,7,8,6,,15,,
4-6[8:1]*-7[8:1],,,,4-2[8:1]*-1[8:1],,,,4w8[8:1],,,,4,,,,
{16}2,6,2,5,2,4,2,5,2,6,3,7,4,8,4,8,1b,1,2,2,3,3,4,4,5,5,6,6,7-3[4:1],,,,
{8}
3V15[4:2],,4,,5bV71[8:4],,,1,2,3,4V68[4:1]*q8[4:1],,4bV26[4:2],,,,
6V84[4:2],,5,,4bV28[8:4],,,8,7,6,5p1[8:1]*v2[8:1],,5b,,,18,
75,6,24,3,1-5[8:1]/8-4[8:1],,1b/8b,,
86,7,13,2,4-8[8:1]/5-1[8:1],,4b/5b,,
{16}3,4,2,,3,4,1,,4,5,1,,5,6,8,,2,5,4,5,7,5,4,5,
{32}1b,2,3,4,5,6,7,8,1b,2,3,4,5,6,7,8,
{8}1bv4[8:5]/5,5,6,6,7,7,8,8,1-6[8:1],,1v4[8:1],,
{12}8-3[8:1]*-5[8:1],8,8,{8}8b,,
21,8,37,6,2/5-1[8:1],,
4-7[8:1]/5-7[8:1],,4-2[8:1]/5-2[8:1],,4q5[4:1]/5<4[4:1],,45,,,
6<1[8:1],6,{24}1b,2,3,{8}4,5p1[8:1],5,{24}1b,8,7,{8}6,
5,14,5,86,7,1>4[8:1]/8v3[8:1],,18,,
65,4,73,2,6/1q5[8:1],,
8-3[8:1]/1>3[8:1],,8<6[8:1]/1-6[8:1],,8q1[4:1]/1>8[4:1],,81,,,
2>5[8:1],2,{24}5b,6,7,{8}8,1p5[8:1],1,{24}5b,4,3,{8}2,
1,58,1,62,3,45,{24}4b/5b,36,27,{8}8/1>4[8:1],,
{16}
5,6,7,,8-4[8:1]/2,,7,,2v5[8:1]/8,,3,,2/7<4[8:1],,,,
3,2,1,,3-8[8:1]/5,,4,,6v1[8:1]/3,,5,,6/2>5[8:1],,,,
6,7,8,,
{8}1p5[8:1],1,3>8[8:1],3,7v2[8:1],7,3>8[8:1],3,4p8[8:1],4,5w1[8:1],5,5b,,
{16}42,,3,5,1-5[8:1],,1-6[8:1],,1-4[8:1],,,,,,,,
57,,6,4,8-4[8:1],,8>2[8:1],,8<6[8:1],,,,,,,,
23,,34,,45,,56,,74,,63,,52,,41,,
5,2,6,3,7,4,8,5,
{32}8b,7,6,5,4,3,2,1,8b,7,6,5,4,3,2,1,
{8}8bv5[8:5]/4,4,3,3,2,2,1,1,8-3[8:1],,8v5[8:1],,
{12}1<6[8:1]*>4[8:1],1,1,{8}1b,,
{4}
5h[1024:1],,6h[1024:1],,7h[1024:1],,8h[1024:1],,
1h[1024:1]/6v1[4:5],,2h[1024:1],,3h[1024:1],,4h[1024:1],,
5h[1024:1]/2v5[4:5],,6h[1024:1],,7h[1024:1],,8h[1024:1],,
1h[4:3],,2h[1024:1],{8},4,{4}
4<8[8:1]/5>1[8:1],4z8[8:1]/5s1[8:1],,2b/7b,
{8}26,7,48,7,6/2-6[8:1],,
2-4[8:1]/6-8[8:1],,2-7[8:1]/6-3[8:1],,2>5[8:1]/6<1[8:1],,26,,,
4p8[8:1],4,{24}1b,8,7,{8}6,5q2[8:1],5,{24}1b,2,3,{8}4,
3,26,1,85,1,2-5[8:1]/6v1[8:1],,26,,
{8}84,7,62,7,4/8-4[8:1],,
4>1[8:1]/8<5[8:1],,8q4[8:1]/4q8[8:1],,8V64[4:1]/4V28[4:1],,48,,,
1q5[8:1],1,{24}4b,5,6,{8}7,8p3[8:1],8,{24}4b,3,2,{8}1,
2,37,4,58,4,37,{24}3b/7b,26,15,{8}84,,
{16}
5/3h[8:1],,7,,5/4h[8:1],,2,,5/6h[8:1],,8,,4/5h[8:1],,2,,
52,63,74
,,83,,27,,1v6[8:1]/6<1[8:1],,54,,16,,,,
4/5h[8:1],,2,,4/5h[8:1],,7,,4/3h[8:1],,1,,5/4h[8:1],,7,,
74,,38,,83,72,61,,4qq2[8:1]/5pp7[8:1],,63,,45,,,,
3/8h[8:1],,1,,8/7h[8:1],,6,,7/1h[8:1],,5,,4/2h[8:1],,6,,
16,27,38
,,47,,63,,5v2[8:1]/2>5[8:1],,78,,52,,,,
6/8h[8:1],,4,,3/1h[8:1],,5,,3/8h[8:1],,5,,6/1h[8:1],,4,,
2,3,4,5,8,7,6,5,1-5[8:1],82,73,,1b,,,,
{2}4qq1[4:9]/8qq5[4:9],,,,,,,,,,,,,,
&inote_6=(134)
{1},
{4}5bv8[4:5],,,,,,,,
{4}
2v1[8:1]*>8[4:5],,1v3[8:1],,4v1[8:1],,{8}1-5[8:1],,,6,
{4}6v1[8:1]*>2[4:4],,1v7[8:1],,8v1[8:1],,2h[4:2],,
3v2[8:1]*<1[4:5],,2v4[8:1],,5v2[8:1],,{8}2-6[8:1],,,7,
{4}7v2[8:1]*<3[4:4],,2v8[8:1],,1v2[8:1],,3h[4:2],,
{4}4b<2[8:4]*pp3[4:2],,,,
{16}3,4,2,2,5,4,7,7,
{12}5w1[8:1],6,4,5b,,,
{16}
6/4-6[8:1],,3-7[8:1],,4,,3,,5-2[8:1],,6-1[8:1],,5,,6,,
4v7[8:1],3,2,,4/1>6[4:1],,1,,6,,7,,8,,,,
5-3[8:1]/3,,6-2[8:1],,5,,6,,4-7[8:1],,3-8[8:1],,4,,3,,
5<7[8:1],,5,,2,3,4qq4[4:1],,8,,8,,6b,,,,
2/8-2[8:1],,7v4[8:1],,8,,7,,1v6[8:1],,2-5[8:1],,1,,2,,
8-4[8:1],7,6,,8/5<2[4:1],,5,,2,,3,,4,,,,
7/1-7[8:1],,2v5[8:1],,1,,2,,8v3[8:1],,7-4[8:1],,8,,7,,
1,2,3,4,1,8,7,6,4v1[8:1]*q8[8:1],3,2,,4b,,,,
{8}
2<7[4:1],6,6,6,5<1[4:1],,2,,3p6[4:1],,7,,5p4[4:1],,
2,,1>4[8:1],1<6[8:1],,
{16},,5>2[8:1],,,,7-4[8:1],,,,3-8[8:1],,3-6[16:2],,,,,,7V13[16:3],,,,,,,,
{8}
6>3[4:1],2,2,2,1q5[4:1],,6,,7-2[8:1],,5-8[8:1],,3-6[8:1],,
1-4[8:1],,5<8[8:1],5>2[8:1],,
{16},,1-5[8:1],,,,3-6[8:1],,,,7>1[8:1],,7<3[8:2],,,,,,2qq7[16:5],,,,,,,,
6,,5,,34,,2,3,45,,8,7,64,,1,2,
3-5[8:1]/7-5[8:1],,,,3v1[8:1]/7v1[8:1],,,,,,,,24,,35,,
4h[16:3]/6,,8,7,64,,1,2,35,,8,7,65,,54,,
4/3>8[8:1],,2,,34,,5,5,1,6,3,7,5,8,2,6,
4h[16:3],,8,7,64,,1,2,53,,1,8,74,,8,1,
6v5[8:1]/2v3[8:1],,,,6v8[8:1]/2v8[8:1],,,,,,,,75,,6h[8:1]/4,,
{16}3,5,3,4,3,2,3,1,2,8,3,8,4,8,5,8,3b,3,5,5,1,1,7,7,4,4,8,8,2-6[16:2],,,,
{8}
2/4V28[16:3],,8v3[16:3],,4b-7[16:3],,,,8-2[16:2],7,6v7[16:3],,3b<6[8:1],,,,
7v8[32:8],,8V64[8:2],,4bV26[8:2],,,,1-4[8:1],2,3-7[8:1],,5bV74[16:3],,,
1,1h[4:1],2,2h[4:1],3,3h[4:1],,4>1[8:1],4,5,5h[4:1],6,6h[8:1],7h[8:2],,8<5[8:1],,
{16}3,2,1h[8:2],,5,6,7h[8:2],,4,3,2h[8:2],,6,7,8h[8:1],,1,8,3,4,1,8,5,6,
{32}1b,2,3,4,7,6,5,4,2b,3,4,5,8,7,6,5,
{8}1bqq6[8:4],1,2,2,3,3,4,4,5-3[8:1]*-7[8:1],,5-1[8:1],,
{12}4<7[8:1]*>2[32:3],4,4,{8}4b,,
1q5[8:1],5q1[8:1],1>4[8:1]/6<1[8:1],,,,
8<5[16:2]/5>2[8:1],,5V71[8:1]*q1[8:1],,5v3[8:1]*qq3[8:1],,,,28,
54,4/2h[8:2],{24}1b,8,7,{8}6,54,5/6h[8:3],{24}7b,8,1,{8}2,
5,6<1[8:1]/4,7,6/5qq5[8:2],3,8/5<2[8:2],,,,
5q1[8:1],2>5[8:1],5<8[8:1]*p1[8:1],,,,
4pp8[16:6]/3-5[8:1],,3>8[8:1],,3q7[8:1]*<7[8:1],,,,61,
45,5/7h[8:2],{24}8b,1,2,{8}3,45,4/3h[8:3],{24}2b,1,8,{8}7,
4,5-1[8:1]/3,47,52,3,64,{32}1b,82,73,64,{8}5,,
{16}
7,2,6,,1>4[8:1]/5,,4>1[8:1],,1q5[8:1],,6,,6h[8:2],,,,
2,7,3,,8<5[8:1]/4,,5<8[8:1],,8p3[8:1],,2,,2h[8:2],,,,
8,1,7,,2/6>3[8:1],,3<6[8:1],,1v4[8:1],,1p5[8:1],,1,,1,,
3>8[8:1],,5,,6,,7,,34,,65,,1/8h[8:2],,,,
5,,5,6,4<7[8:1],,7-3[8:1],,3>8[8:1],,,,,,,,
34,,3,4,1<6[8:1],,6-2[8:1],,2>5[8:1],,,,,,,,
1/7>2[8:1],,7,,7/3-7[8:1],,3,,3/6>3[8:1],,6,,6/1,,1h[8:1],,
8,1,6,5,8,1,4,3,
{32}8b,7,6,5,2,3,4,5,7b,6,5,4,1,2,3,4,
{8}8bpp3[8:4],8,7,7,6,6,5-8[8:1],5,4-6[8:1]*-7[8:1],,4v3[8:1],,
{12}5>1[8:1]*<8[8:1],5,5,{8}5b,,
{4}
8h[4:15],,1h[1024:1],,2h[1024:1],,3h[1024:1],,
4h[1024:1],,5h[1024:1],,6h[1024:1],,7h[1024:1],,
8h[1024:1]/1v2[8:18],,2h[1024:1],,3h[1024:1],,
4h[1024:1],,5h[1024:1],,6h[1024:1],{8},1,{4}
7-3[8:1]/1-5[8:1],7<4[8:1]/1>4[8:1],,8b/4b,
{8}
6-2[8:1],2-6[8:1],6V84[16:3],3,3,,
2-6[8:1],,1-5[8:1]/2,,8-4[8:1]/1,,7qq3[8:2]/8,,3,
2,1,{24}4b-8[8:1]/1b,52,63,4/7,,,{8}6,5,{24}5b/2b,36,47,58,,,{8}
4,6V82[8:1]/3,7,6/5v3[8:1],4,8/5<2[8:2],,,,
3-7[8:1],7V13[8:1],3V51[16:3],6,6,,
7-3[8:1],,8-4[8:1]/7,,1-5[8:1]/8,,2pp6[8:2]/1,,6,
7,8,{24}5b-1[8:1]/8b,47,36,5/2,,,{8}3,4,{24}4b/7b,63,52,41,,,{8}
5h[8:1],1h[8:1],4h[8:1],8h[8:1],3h[16:3],7h[16:1],{32}3b/7b,48,51,62,{8}37,,
{16}
2v5[8:1]/5,,6<8[32:3]/1,,2,,6,,4v7[8:1],,3>1[32:3],,4,,3,,
5p1[8:1],6,7v4[8:1],,5,,7,,2>5[8:1]*q6[8:1],,1,,2,,,,
4/7v4[8:1],,8/3>1[32:3],,7,,3,,5v2[8:1],,6<8[32:3],,5,,6,,
1>4[8:1],,72,,6,7,8qq7[4:1],,4,,4,,2b,,,,
4/6v1[8:1],,8/2-5[8:1],,6,,2,,8v5[8:1],,7<4[8:1],,8,,7,,
1p5[8:1],2,3-7[8:1],,1,,3,,6<1[8:1]*>3[8:1],,5,,6,,,,
5/3v8[8:1],,1/7-4[8:1],,3,,7,,1v4[8:1],,2>5[8:1],,1,,2,,
8,7,6,5,8,1,2,3,5w1[8:1],6,7,,5b,,,,
{128},{12}2,3,4,2,3,
(118)4,2,3,4,{128},{12}2,3,4,
(104)2,3,4,2,3,4,
(88)2,{48}3,,,{96},{48}4,,,,2,,,,{48}3,,,{96},,{48}4,,,,{1}2b,,,,,
