&title=なかま歌
&artist=不知火建設
&first=0
&des=うすしお
&lv_5=13+
&inote_5=(195){4},,,,
3h[4:1]/4h[4:1],,2h[4:1]/4h[4:1],,3h[4:1]/5h[4:1],,1h[4:1]/5h[4:1],,
3hx[8:1]/4xh[8:1],2hx[8:1]/3xh[8:1],1hx[8:1]/2xh[8:1],8hx[8:1]/1xh[8:1],
{16}7x/8x,,7x,,7x/8x,,8x,,7,6,5,4,8,7,6,5,
1,,3,4,3,,6,5,6-2[8:1],,4,,6,,3,,
7,,2,1,2,,7,8,7-3[8:1],,1,,7,,2,,
7,,1,8,2,7,2,7,1-5[8:1],,8,,1,,7,,
2,1,3,8,4,7,5,6,7,8,1,2,,,,,
6,5,7,,7,,7,,E6,E5,E4,,12,,,,3,4,2,,2,,2,,B5,,B1,,B7,,,,
1,,7,5,6,4,5,3,4,,2,,1,,8,,
1,8,2,7,1,8,2,7,{32}1x,2x,3x,4x,5x,6x,7x,8x,1x,2x,3x,4x,5x,6x,7x,8x,
{8}1x,,2,2,3,,4,4,5h[4:1],,6h[4:1],,7h[4:1],,8,,
1h[2:1],,8,7,6h[2:1],,5,4,3q1[4:1],,1>5[4:1]*q5[4:1],,,,,,
6h[2:1],,7,8,1h[2:1],,2,3,4>1[6:1],,5,,6>3[6:1],,7,,
8h[2:1],,7,6,5h[2:1],,4,3,2-5[8:1],,2/6-1[8:1],,26,,8b,,
6>3[6:1],,3,,2q7[6:1],,7,,8qq8[4:1],,,,1-5[8:1],,1,,
6<1[6:1],,5,4,3>8[6:1],,4,5,6-1[8:1],,1-3[8:1]*-4[8:1],,,,2,,
1-5[8:1],,8-6[8:1],,1-3[8:1],,8-4[8:1],,1>5[4:1],,5<1[4:1],,1,,C,,
4h[2:1],,3,3,5h[2:1],,6,6,4,3,2v5[8:1]/8v5[8:1],,28,,
{48}2x/8x,D3/D8,A3/A7,D4/D7,A4/A6,D5/D6,{8}A5,
3x/4x,2x/5x,,6x/5x,7x/4x,,3x/4x,2x/5x,,1,8,7,{16}6,5,6,5,{8}7,8,
1>4[4:1],,4q1[4:1],,C,,,,7<4[4:1],,4p7[4:1],,C,,,,
2x/1x,3x/8x,,7x/8x,6x/1x,,2x/1x,3x/8x,,7,6,5,{16}4,5,4,5,{8}3,2,
1-5[8:1]/8-4[8:1],,18,,2-5[8:1]/7-4[8:1],18,27,,
{16}1x,8x,1x,8x,1x-5[8:1]b,8x,1x,8x,{48}1bx,A1,B1,C,B5,A5,{8},6,7,
8-4[8:1],,82,1,78,6,78,1,78,{16}6,5,{8}6,4,3<6[6:1],,2,2,
1-5[8:1],,17,8,21,3,21,8,21,{16}3,4,{8}3,5,6<1[6:1],,,,
4-8[8:1],,46,5,34,2,34,5,34,{16}2,1,{8}2,8,7<4[6:1],,8,1,
12,38,1-5[8:1]/2-6[8:1],38,12,,43,25,
4-8[8:1]/3-7[8:1],25,43,,{32}E1,E2,E3,E4,E5,E6,E7,E8,{8}E1,,
7-4[8:1],,78,1,2-5[8:1],1,2,8,7,{16}5,6,{8}4,3,2>5[6:1],,1,8,
7-4[8:1],,78,1,2-5[8:1],1,2,8,7,{16}5,6,{8}4,3,2<7[6:1],,,,
6-1[8:1],,65,4,3-8[8:1],4,3,5,6,{16}8,7,{8}1,2,3>8[6:1],,4,4,
15,26,1-4[8:1]/5-8[8:1],26,15,,73,26,7-4[8:1]/3-8[8:1],26,73,,1b,,1b/2b,,
4>2[8:1]/5<7[8:1],,,,45,,3,,
2x/3x,2x/3x,2x-4-8[4:1]/3x-5-8[4:1],2x/3x,2x/3x,,,,
6,6,6,5,6,,3,3,3,4,3,,6,6,4,5,2,2,2,3,2,,7,7,7,6,7,,4,4,5,3,
{16}6,5,6,,3,4,3,,6,5,6,,3,4,3,4,2,5,2,5,1,6,1,6,
{32}1,2,3,4,5,6,7,8,1,2,3,4,5,6,7,8,
A1,A2,A3,A4,A5,A6,A7,A8,E1,E2,E3,E4,E5,E6,E7,E8,
{16}E1,,7,8,7,8,7,8,7x-4[8:1],,,,2x-5[8:1],,,,8xw4[8:1],,,,8bx,C/B3/B6/B5/B2,,,
2,,4,3,4,,2,,8-4[8:1],,1-5[8:1],,8,,1,,7,,4,6,4,,7,,8x,8x,8x,8x,8x,,,,
1,,7,8,7,,1,,7,,6,,45,,3,,2,,7,1,7,,,2,,3x-1[8:1]/4x-8[8:1],,,,,,,
7,,5,6,5,,7,,1-5[8:1],,8-4[8:1],,1,,8,,2,,5,3,5,,2,,1x-5[8:1],,,,,,,,
4,,4,,6,,6,,3,,3,,5,,5,,2,4,3,5,4,6,5,7,8,6,1,7,2,8,3,1,
{4}4h[1:1],,B2,,5h[1:1],,B7,,4>8[2:1],,8<2[4:3],,4h[2:1],,,,
2h[1:1],,B4,,7h[1:1],,B5,,1>5[2:1],,5<3[4:3],,1h[2:1],,,,
4h[2:1],,5,6,78,6,45,3,12,12,38,38,4>1[4:1]/7<4[4:1],,,,7xz3[4:5]b,,,,,,,,
{8}2,2,2,4,4,4,5,5,5,7,7,7,{16}1,8,1,8,{8}2-5[8:1],,
7-2[8:1],,3-6[8:1],,5-8[8:1],,1-4[8:1],,
7-3[8:1],7,1-5[8:1],1,8-4[8:1],8,2q5[4:3],,Cf,,,,,,,,
5h[4:1]/7h[4:1],,,,5h[8:1]/7h[8:1],,5h[8:1]/7h[8:1],,
57,{16}5,6,{8}5,5,5h[4:1]/7h[4:1],,,,
6h[4:1]/4h[4:1],,,,6h[8:1]/4h[8:1],,6h[8:1]/4h[8:1],,
64,{16}6,5,{8}6,6,6h[4:1]/4h[4:1],,,,
3h[4:1]/5h[4:1],,,,3h[8:1]/5h[8:1],,3h[8:1]/5h[8:1],,
35,{16}3,4,{8}3,3,3h[4:1]/5h[4:1],,,,
24,24,,,57,57,,,24,3,57,6,2/4-8[8:1],,4/5-1[8:1],,
,,2b/7b,,34,2,18,7,56,{16}7,8,{8}7,1,2<7[6:1],,3,4,
5-1[8:1],,53,4,56,7,18,2,34,{16}2,1,{8}2,8,7<4[6:1],,,,
1-5[8:1],,17,8,12,3,45,6,78,{16}6,5,{8}6,4,3>8[6:1],,4,5,
56,74,5-1[8:1]/6-2[8:1],74,56,,87,61,
8-4[8:1]/7-3[8:1],61,87,,{32}E5,E6,E7,E8,E1,E2,E3,E4,{8}E5,,
3-8[8:1],,34,5,6-1[8:1],5,6,4,3,{16}1,2,{8}8,7,6<1[6:1],,5,4,
3-8[8:1],,34,5,6-1[8:1],5,6,4,3,{16}1,2,{8}8,7,6>3[6:1],,,,
2-5[8:1],,21,8,7-4[8:1],8,7,1,2,{16}4,3,{8}5,6,7<4[6:1],,8,8,
15,48,1-4[8:1]/5-8[8:1],48,15,,73,48,7-4[8:1]/3-8[8:1],48,73,,1b,,1b/2b,,
4>2[8:1]/5<7[8:1],,,,45,,3,,
2x/3x,2x/3x,2x-4-8[4:1]/3x-5-8[4:1],2x/3x,2x/3x,,,,
{4}6h[4:1],B7,3h[4:1],B2,7h[4:1],B6,2h[4:1],B3,
8-2[8:1],4-6[8:1]/8,8-4[8:1]/4,48,3-1[8:1],7-5[8:1]/3,3-7[8:1]/7,37,Ch[1:1],,,,E
