&title=Scythe of Death
&artist=Masahiro ”Godspeed” Aoki
&first=0.07
&des=G.O.D. aka “God of Death”
&lv_5=14+
&inote_5=(130)
{1},
{2}1h[64:1],2h[64:1],
{8}3h[64:1]`6h[8:1],,2,5,{16}4h[64:1],6,5,6,{8}4h[8:1],7h[8:1],
{8}5h[64:1],{16}6,6,{8}4h[8:1],5,{16}6h[64:1],4,{8}5,3h[8:1],5,
{8}7h[64:1]`2h[8:1],,6,1,{16}8h[64:1],2,1,2,{8}7h[8:1],3,
{16}1h[64:1],,6,6,{8}4,5,2h[64:1]`1-5[8:1],37,2h[8:1],,
{48}1b<3[4:6]/6b,2,3h[48:10],{16},{8},{4},
{2}2h[64:1],1h[64:1],{4}8h[64:1],{8},7,
{4}8bp4[16:1]/7bv5[16:1],,1bq5[16:1]/2bv4[16:1],,
{24}2,6,4,5,4,5,3,7,5,6,5,6,{8}4-8[16:1]/7-4[16:1],38,4/7,,
{8}2h[8:1],{24}7,6,5,{8}8,{24}2,3,4,{8}1-3[12:1],8,6h[8:1],,
{8}7h[8:1],{24}1,2,3,{8}8,{24}6,5,4,{8}8-6[12:1],1-3[12:1],8,1,
{8}5h[8:1],{24}2,3,4,{8}6h[8:1],{24}1,2,3,{8}5,5,17,1,
{8}2h[8:1],{24}7,6,5,{8}3h[8:1],{24}8,7,6,{8}4,{16}4,4,{8}5,36,
{8}24,{24}3,5,3,{8}6,6h[8:1],{24}4,,4,{8}6,{24}5,,5,{8}3>6[16:3],
{8}45,{24}6,5,4,{8}3,{8}1,2h[8:1],4h[8:1],5h[8:1],7h[8:1],
{8}4-2[16:1],{24}6,5,6,{8}4,6-4[16:1],2,2/6-8[16:1],3,36,
{8}2,{24}3-1[16:1],4,3,{8}4,35,{16}6,6,{24}3,4,3,{16}6,6,{24}4,5,4,
{32}7b,6,5,4,3,2,1,8,7,6,5,4,3,2,1,8,7/3b,4,5,6,7,8,1,2,3,4,5,6,7,8,1,2,
{32}8b/3,7,6,5,4,3,2,1,{4}8bV63[4:1]/4bV27[4:1],,,
{16}3-6[16:1],4,2,2,2,,1,8,2,7,36,,4,5,3,3,
{16}5,4,6,6,8q4[8:1],7,1,6,,,5,,3,3,4,2h[16:3],
{16},,1,3,8,4,7h[8:1],,5-8[16:1],5,6,4,5,,3h[16:3],,
{16},8,28,,3q6[16:3]/5,,64,6<4[16:3],,,,5,,,,7b,
{16},,4,5h[16:1],4,5h[16:1],4,5h[16:1],3,5h[16:1],2,5h[16:1],3,5h[16:1],
{16}1,5h[16:1],3,5h[16:1],8,5h[16:1],3q5[16:3],5h[16:1],7,5h[16:1],,,7,,8b,82,,{32}8b/1b,7,
{16}6,,2-8[16:1],4,3,5,2,,6-4[16:1],8,7,1,6,,3,35,
{16},6,46,,2,5,4,6,2,5,4,6,{24}3,5,4,6,4,5,
{16}2bqq5[4:1],,,5,,,7h[8:1],,,,5,6,4,5,3,4,
{16}1qq6[16:4],8,2,2,1,,,,2,2,4,3,5,4,6,5,
{16}7>5[16:5],,,3h[16:3],,,,,1q5[8:1],,1,,6>1[4:1],,7h[8:1],,
{8},6,6h[4:1],,{24}4,3,2,1,8,7,4,3,2,1,8,7,
{16}6bpp4[4:1]/4,,,4,,,2h[8:1],,,,4,3,5,4,6,5,
{16}8<3[16:3],2,7,1,6h[8:1],,,,{24}1-5[16:1],8,7,6,5,4,{8}1b/3<6[16:1],,
{8}3b/7bs3[12:1],,,{16},1bv6[16:1],,28,8,7bv4[16:1],,3,3,,{12}2,35,46,1w5[4:1],28,37,{4},,
{8}12,{48}8/1v6[16:1],7,6,{16}5,2,2h[8:1],1,,,3,5-2[16:1],4,6,6,57,,
{8}8,{48}8/1v6[16:1],7,6,{16}5,2,2h[8:1],1,,2v5[16:1],7,1-6[16:1],,2,,1,3,
{8}2,{48}8/1v6[16:1],7,6,{16}5,2,2h[8:1],1,,3-1[16:1],,5,5,,,6,5,7,7,1,8,3,4,2,2,{24}6,5,6,3,4,3,5,4,5,6/3v8[16:1],,,
{8}17,6,{16}5,1h[8:1],{48}7,,,{16},2,2,8<5[16:1],2,1,3,3v8[16:1],,
{8}4,6,{16}7,1h[8:1],{48}6,,,{16},1>4[16:1],4,8<5[16:1],5,1,,8,3,
{8},7-3[12:1]/1,{16}6,5h[16:1],7,,4pp7[4:1],,2,2,,1,1,,
{16}2,2,5,5,3,3,6,6,{24}3,5,4,6,4,5,2,4,3,7,5,6,
{4}1b<1[8:11],,,,,{8},8,{4}8<1[8:9],,,,{8}8<5[32:3],8,,,
{4}4>5[8:11],,4h[128:1],,3h[128:1],,2qq4[8:5],5,
{4}6,7,8z4[12:1]*v5[12:1],8b,
{16}3h[64:1],5,5,5,2h[64:1],4,4,7h[64:1],5,5,2h[64:1],4,4,4,2h[64:1],5,5,7h[64:1],4,4,2h[16:1],1h[16:1],3h[16:1],,
{16}6h[64:1],4,4,4,7h[64:1],5,5,2h[64:1],4,4,7h[64:1],5,5,5,7h[64:1],4,4,2h[64:1],5,5,7h[16:1],8h[16:1],6h[16:1],,
{16}4b>2[16:1],5,2,1v4[16:1],4,7,7,1b,6,6,2v4[32:3],8,4p8[32:3],5,2,8,8,{32}7b,6,5,,{16},2h[16:1],4h[16:1],1,1,
{16}6b-8[16:1],5,8,1-5[16:1],6,3,3,1b,4,4,7v5[32:3],1,5q1[32:3],4,7,1,1,{32}2b,3,4,,{16},8,47,36,2,
{4}5b<4[8:3]*s1[16:3],,,{24}6,5,6,3,4,3,6,5,7,3,4,2,8,1,8,1,8,1,
{4}8b<1[8:3]*s4[16:3],,,{24}3,5,4,6,4,5,2,3,4,7,6,5,1,2,3,48,7,6,
{4}5b-1[16:1]/4b-8[16:1],,
{16}6h[16:1],5,6h[16:1],4,6h[16:1],3,6h[16:1],2,
{16}6h[16:1],1,6h[16:1],8,6h[16:1],7,6h[16:1],5,
{16}4h[16:1],5,4h[16:1],6,4h[16:1],7,4h[16:1],8,
{16}4h[16:1],1,4h[16:1],2,4h[16:1],3,4h[16:1],5,
{16}7h[16:1],8,7h[16:1],6,7h[16:1],1,7h[16:1],5,
{16}3h[16:1],4,3h[16:1],2,3h[16:1],5,3h[16:1],1,
{48}8h[16:1]/2,3,4,,,,1h[16:1]/7,6,5,,,,8h[16:1]/3,4,5,,,,1h[16:1]/6,5,4,,,,
{24}2,7,4,5,4,5,{32}3,4,5,6,7,8,1,2,
{8}3bqq8[16:6]/6,8,{32}7,6,5,,{8},7qq5[8:1],,2,3,
{8}4pp7[16:6],3,{32}2h[8:1],,,,{8},2>5[8:1],{16}1,1,8,,7h[16:1],,
{8}5V73[4:1],4,3h[64:1],2h[64:1],1V37[4:1],8,7h[64:1],6h[64:1],
{32}5,4,3,2,1,8,7,6,5/1w5[32:3],2,3,4,5,6,7,8,
{48}1b,,,,,,{8},{16}1,7,2-4[16:1],8,
{16}1,7,6/2-8[16:1],,5,5,2-4[16:1],6h[16:3],
{8},2,{16}7,5,6-8[16:1],4,
{16}5,2,6-4[16:1],,1,1,6<1[32:3],2,
{16},,1,2,3,4,6,6,
{16}3,{32}4,5,{16}4,6h[16:1],8-6[16:1],1,2,2,
{16}8-2[16:1],3,3,5,8,6,6,3,5h[24:1],4,{32}6,5,{16}6,4,5,{32}3,4,{16}3,
{32}5,6,7,8,1,2,{32}4,5,6,7,8w4[32:2],1,26,,,,
{8}8bqq5[4:4]*pp4[4:4],,,,
{16},,,,,,,,
{8},{16},,,,,,
{48}2b,3,4h[48:4],{16},1,,{48}7b,6,5h[48:4],{16},8,,
{8}3b-5[16:1]/5,1/7b-1[16:1],3,7,
{16}4b-6[16:1],8,2b-8[16:1],,4,,2,,
{8}7b-5[16:1],{16}3b-1[16:1],8,7,,3,,
{8}8bw4[32:2],1b/7b,{32}8b,,,,{8},
{8}28,{24}5,4,6,{8}5,71,
{24}3,4,2,{8}4,{24}6,5,7,{8}5,
{8}2v5[16:1]/6,{16}1-6[16:1],8,{8}2,1,
{24}2<7[16:1],4,3,{8}4-8[16:1],2b,4b,
{8}5/7,{24}2-4[16:1],1,2,{8}1,2-7[16:1]/5,
{24}6,5,6,{8}2>5[16:1],{24}6,8,6,{8}2,
{8}7>2[16:1],{24}5-1[16:1],6,5,{8}7,5,
{48}7b,6,5,{8}4,{48}1b,2,3,{8}4,{48}8b/4b,73,62,{16}51,
{4}8pp3[4:2]*qq5[4:2],,{4},{8},27,{4}1pp4[4:2]/8qq5[4:2],,,,
{24}3b,4,2,4,3,5,{48}1,2,3,4,5,6,7,8,1,2,3,4,
{24}6b/5b,,7,5,6,4,{48}8,7,6,5,4,3,2,1,8,7,6,5,
{4}2h[4:1]/4h[4:1],{8},{32}1,5,1,5,8b>6[64:7],6b,8b,6b,8b,6b,8b,6b,
{16},,{64},,7,8,{64}1,2,3,4,
{4}7b>2[16:14]/5b-2[16:14],
