&title=《Ж》
&artist=LYRi "Cyanblue" WHiTE / NIKANON
&first=0
&des=Ayuri "Caerulea"
&des_5=Ayuri "Caerulea"
&lv_5=14+
&inote_5=(212){4},{1},,{4},,,{24}1x,
8x,1x,8x,1x,8x,1x,8x,1x,8x,1x,8x,1x,8x,1x,8x,1x,8x,{4}1bx>4[8:1],
{24}5b,6,7,8h[8:7],{4},,,{16},{48},{4}Cf,
,,8x<5[8:1],
{24}4b,3,2,1h[8:7],{4},,,{16},{48},{1}Cf,
{24}1b/8b,2/7,3/6,5h[8:5]/4>5[8:3],{4},,,{16},{48},{1}Cf,
{24}8b/1b,7/2,6/3,4h[8:5]/5<4[8:3],{4},,,{16},{48},{1}Cf,
{24}8/4,7,6,5,4,3,2,1,8,7,6,5,4/8,3,2,1,8,7,6,5,4,3,2,1,
4/8,5,6,7,8,1,2,3,4,5,6,7,8/4,1,2,3,4,5,6,7,8,1,2,3,
{8}4/5h[4:1],,,7h[4:1]/4h[4:1],,,{4}8/C,
{8}5/4h[4:1],,,2h[4:1]/5h[4:1],,,{4}1/C,
3/8,{8}1,1,{4}3>8[8:1],4,
5,{8}8,8,{4}6<1[8:1],5,
{8}8/4,4/8,7/3,3/7,6/2,2/6,{16}1,5,1,5,
{1}C,
{8}2/5,{16}3,4,{4}3h[8:1],{8}7/4,{16}6,5,{4}6h[8:1],
{8}3h[8:1],5h[8:1],4h[8:1],6h[8:1],{16}3,2,1,8,7,6,5,4,
{8}3/8,{16}1,2,{8}1,{16}3,2,3,4,{8}3,{16}6,5,7,4,
{8}8-4[8:1],6/2,,1-5[8:1],{4}3/7,8b<5[8:1]*>3[8:1],
{8}A8f,{16},,,,4,6,{8}5,7,{16}8,7,1,6,
8,1,2,3,8,7,6,5,{8}3/4,2,3/4,5,
4,{16}5,3,{8}4,2,{16}1,2,8,3,1,8,7,6,
1/5,2,3,4,5/1,6,7,8,1/5,4,3,2,1/5,8,7,6,
{8}5/1,2/4,{16}3,4,{8}3,5/4,{16}6,5,{8}6,2h[8:1]/7h[8:1],
{16},,1/6,2/7,{8}3/8,{16}8/3,7/2,6/1,5,4,3,2,1,8/3,7/2,
{8}6/1,{16}7,8,{8}7,{16}1,8,{8}1h[8:1],7h[8:1],3h[8:1],5h[8:1],
{16},,3,4,{8}1-5[8:1],8-6[8:1],1,8,4x,5x,
{24}4pp3[2:1],5/3,6/2,7/1,,,{8}8x,7x,{2}8h[4:1],
{12}8/3,2,1,8/3,2,1,{2}8/3-7[8:1],
{24}5qq6[2:1],4/6,3/7,2/8,,,{8}1x,2x,{2}1h[4:1],
{12}1/6,8,8,1/6,7,7,{4}1/6-2[8:1],{24}1,2,3,4,,,1/5,
4/8,3/7,2/6,,,{12}5,1,7,4,8,2,5,1,3,
6,2,8,3,4,3,5,4,5,2,3,2,
{16}4,3,4,3,8,1,8,1,{8}8,{24}7b,6,5,{8}4,{24}1b,2,3,
{4}4qq5[8:3]/8qq1[2:1],,,Cf,
{8}8/5,{16}7,4,6,5,1,2,3/8b,,,5b/4,,,{8}7/8b,
{4}6-2[8:1],{16}1,2,3,4,5/1,8,7,6,{4}2/5,
{8}4/1,{16}2,5,3,4,8,7,6/1b,,,4b/5,,,{8}2/1b,
{4}3-7[8:1],{16}8,7,6,5,4/8,1,2,3,4/5,6,7,8,
{8}1/2,{16}3,4,{4}2h[8:1],{8}8/7,{16}6,5,{4}7h[8:1],
{24}2/6,3,4,5,6,7,8/4,1,2,3,4,5,{16}2h[4:1]/6h[4:1],,,,,5/1,4/8,3/7,
{8}2/6,{16}4,5,4,5,3,4,{8}3h[8:1],{16}5,4,5,4,6,5,
6h[8:1],,,4h[8:1]/8h[8:1],,,{8}2h[8:1],{16}5h[8:1],,,7h[8:1]/3h[8:1],,,{8}1h[8:1],
{16},,6,5,4,3,2,1,{8}8,{16}5,7,,4,{8}6,
5/4,3/4,{16}2,1,8,7,2,1,8,7,2,1,8,7,
{8}6,{16}3,4,5,6,7,8,{8}1,{16}4,2,,5,{8}3,
4/5,6/5,{16}7,8,1,2,7,8,1,2,7,8,1,2,
3/5h[8:1],,,6/4h[8:1],,,{8}1/7h[8:1],{16}4h[8:1],,,3/5h[8:1],,,{8}8/2h[8:1],
6h[8:1],{16}4,5h[8:1],,3,{8}4h[8:1],{16}1b,2,3,4,5,6,7,8,
{4}1h[4:3],3,5,7,
{16}8,1,8,1,8,1,7,1,8,1,8,2,8v3[8:1]*q4[8:1],1,7,1,
{1}8b,
{16}5,5,5,5,5h[32:1],5h[32:1],5h[32:1],5h[32:1],{4}5<8[8:1],5>2[8:1],
{1}5<1>7b[1:4],
,,,7>3<1[4:15],
,,,3V14-7[1:1],
{2}7V14-6[1:1],4,
{1}6V84-1[1:1],
{2}1V37-4[4:3],7,
{1}8h[1:2],
{8}E6,,,E5,,,{4}E4,
{1}1h[4:11],
,5h[4:3],
{12}2,2,5,7,7,4,{16}1h[8:1]/5h[8:1],,,3h[8:1]/7h[8:1],,,{8}8,
{24}1>1>1[4:7],2/8,7/3,4/6,{1},{4},,,{16},{48},{1}5h[2:1],
4h[2:1]/6h[2:1],
B4h[1:2]/6pp1<6pp1<6[4:11],
,B5/C/B3,
C,
1<2>1[2:3],
{8}E7,,,E6,,,{4}E5,
{8}2bh[4:1]/4h[4:1],,,2h[4:1]/4bh[4:1],,,{4}2bh[4:1]/4h[4:1],
{8},3h[4:1],,5h[4:1],{24},,,,,,{12}7/4-8[8:1],6/3,5/2,
{2}4/1,{16}1,8,2,7,5,6,4,7,
3,4,2,5,1,8,1,8,1,8,1,8,{4}1b,
{8}6/1-5[8:1],{16}8,7,{8}1,8h[8:1],{24}4-8[8:1],7/3,6/2,5/1,,,{8}4,2,
{16}7<4[8:1],,,8,{8}7,1h[8:1],{24}5-1[8:1],2/6,3/7,4/8,,,{8}5,7,
2/8,{16}3,4,{8}3,5/2,7/4,{16}6,5,{8}6,7/4,
{16}3,2,1,8,4,3,2,1,{8}4/8,{16}6,5,{8}7,7/8,
1>4[8:1],{16}6,5,{8}4/1-5[8:1],{16}8,7,{4}1/6-1[8:1],{8}6,2,
8<5[8:1],{16}3,4,{8}5/8-4[8:1],{16}1,2,{4}8/3>8[8:1],{24}3/8,7,6,5,{48},,,,{16}4,
8,5,1,6,2,7,3,6,5,7,4,8,3,1,2,
{8}8h[8:1],{16}1,1h[8:1],,7,{8}7h[8:1],2,{16}1,2,{8}1,8/3,
{24}2b/1b-5[8:1],3/8,4/7,5/6,,,{8}1,8,{16}7<4[8:1],,,2,{8}7/1-5[8:1],3,
{16}1/8,,,7h[16:3],,,{8}4,{16}2>5[8:1],,,7,{8}2/8-4[8:1],6,
{16}4/8,,,1,{8}1h[8:1],5h[8:1],{16}3h[16:3],,,7,{4}7h[8:1],
{16}1/8,,,7/2,,,{8}6/3,{16}4,5,3,5,4,6,4,5,
3h[8:1],,,2h[8:1]/4h[8:1],,,{8}5/1,{16}6h[8:1],,,5h[8:1]/7h[8:1],,,{8}8/4,
{16}5/2h[8:1],,,4/6h[8:1],,,{8}5/3h[8:1],{4}Cf,{16}2,4,2,4,
1,8,1,8,5,6,4,7,2,3,4/8,7,6/1,2,3/7,6,
{32}5/2b,3,4,5,6,7,8b,1,2,3,4,5,{8}6b,{32}8b,7,6,5,4,3,2b,1,8/4-8b[8:1],7/3,6/2,5/1,{8}4b/8b,
,,,,,,,,{2}A6,
A5,
2h[1:1]/A4,A3,
{4}E6,E5,E4,E3,
1x/8xh[1:2],,,B3,
{2}C,{4}E2,E1,
{2}E8,E7/E3,
{4}A3,A4,A5,A6,
Ch[2:3],{8},,,,E8,E7,
{1}E6,
{2}Ch[2:3],E4/A3/D4,
{1}E2/A1/D2,
{4}2/7,1,3/4,5h[8:1],
7/2,8,6/5,4h[8:1],
7/5,6/4,5/3,{12}2,,4,
{6}3,{12}5,4,,,{6}7,{12}5,6,,4h[12:7],
{4},,{32}8b,7/3,6/2,5/1,{8}8v7v6[8:25]/4v3v2[8:25],
E
