&title=天真的橡皮(DJ版)
&artist=白水寒
&first=0.02
&des=DJ HOSHI
&des_5=DJ HOSHI
&lv_5=13
&inote_5=(132)
{4},,,1q5[2:1],
{4}5b,6,7,8V63[2:1],4,3,2,1s5[4:1],5bs1[4:1],6,7<4[8:1]*>2[8:1],7,3>7>3[2:1],4,5,6,
{4}7<5b[8:1]*v4b[8:1],7,1q5[8:1]*-4[8:1],1,4-8[8:1]/6-2[8:1],4qq5[4:1]/6pp5[4:1],,,
{4}1<8-5>4[8:1]/8>1-4<5[8:1],,2-6-3-5[4:1],,8<6[8:1]*>2[8:1],8w4[8:1],8,1>5[4:1],
{8}5b>1[4:1],,8,,7,,6<2[4:1],,2<6[4:1],,5,,4,,3,,2b>5[8:1],2,1v6[8:1],1,2>5[8:1],2,1v6[8:1],1,3v5[4:1]*>7[4:1],,,,
{8},,4-8[8:1],3,2>5[8:1],1,2<7[8:1],6,2-4[8:1],4-8[8:1],2,,7-2[8:1],5V36[4:1],7,5,A8/E1/B8/B1/A1,,
{8}1xpp1[4:1],1x,7h[8:1],,7,5h,A6,4x,8xh,A3,6q2[8:1]*p2[8:1],6,,,1,,3-6>2[4:3],3,B6,,C,,B3,,B5/B4/E5f,,
{4}1V72-6[4:1],6-3V51[4:1],8,6,5q2[8:1],4p7[8:1],8p3[8:1],1,
{4}1v6[8:1]*v4[8:1],,2-8[8:1]/8-2[8:1],,5pp5[4:1],1pp1[4:1],,
{32}B8,C,B4,,,,,,
{4}2-4[8:1],1-5[8:1],8-6[8:1],1-3[8:1],8-4[8:1],8qq7[4:1]*pp1[4:1],,,
{8}2v3[8:1],2,1v4[8:1],1,2v5[8:1],2,1-6[8:1],1,5x,4x,3x,2x,1xw5[8:1],,Cf/1bx,,
{8}2>5[8:1]/8,1,2/8-4[8:1],1,8V25[4:1],,5/8,6,7-3[8:1],4-8[8:1],7-5[8:1],4,7>3[8:1]*V13[8:1],,,,
{16}3/6-1[8:1],,5,5,3v8[8:1]/6,,2,2,3,,7,,5-1b[8:1],,,,
{16}5bx-7b[8:1],,2bx,,5bx-1b[8:1],3bx,,3bx,5bxw1b[8:1],,,,,,,,
{8}3/5,2,4/6,7,8p4[8:1]*v3[8:1],1,8,,
{8}1x>3[8:1],1x<7[8:1],1x-4[8:1],1x-6[8:1],1x-5[8:1],,,,
{16}8-3[8:1],,2,6,8-4[8:1],,7,2,8<6[8:1],,1-5[8:1],,8pp3[2:1],,1,,8V64b[4:1],,,,,,,,,,,,1-5[8:1],,,,
{16}1b/8b/Cf,,,,4V26[4:1]/6-8[8:1],,7,,6V41[4:1],,,,1,,7,,5-2[8:1],,3,7,5-1[8:1],,6,,5,,,,3-6[8:1],,2,,
{16}4h[4:1]/3,,,,8v3[8:1],,5-7[8:1],5,8,,5,,2-4[8:1],,1-5[8:1],,2<7[8:1],,1,,2V48[4:1],,6,,2,,,,7,,6,,
{8}5-7b[8:1],8-4b[8:1],5,8,5-1[8:1]*v2[8:1],5,5,,3-7b[8:1],6-2b[8:1],3qq5[8:3],6pp4[4:1],,,,,
{16}8V64[8:1]*V24[8:1],,1,7,8,,,,
{32}7h[4:1]/E3,B3,B4,E5,,,,,E2,C,E6,,,,,,
{8}8v5[8:1]/4v1[8:1],4/8,4V27[4:1]/8V63[4:1],,4/8,,D7/A7f/D8/D3/A3f/D4,,
{16}2b,6,2,6,2,6,2,6,3x,7,3,7,3,7,3,7,5x,6,5,6,3x,4,3,4,2x,5,2,5,2x,5,2,5,
{16}8x,7,8,7,8,7,8,7,2x,4,2,4,2,4,2,4,1x,5,1,5,2x,6,2,6,3x,7,3,7,4x,8,4,8,
{16}5x,7,5,7,5,7,5,7,2x,1,2,1,2,1,2,1,3b,7,5,7,2b,7,5,7,1b,7,5,7,8b,7,5,7,
{16}1b,8,1,8,1,8,1,8,2b,6,2,6,2,6,2,6,4b,7,4,7,2b,5,2,5,4b,6,3,7,2>6-3[4:3],8,1,7,
{16}2b,,,,D7/E7,,,,B8,,,C,,,E3/D3,,
