&title=My dream girls
&artist=NACHERRY
&first=0
&des=reflectW
&lv_6=12+
&inote_6=(179)
{1},
{4},,,,
{8}4h[8:3]/6,,,5,3,7h[8:2],,1v6[8:1],
,2h[4:1],,7,5,6,4^7[8:1],,
3h[8:3],,,6,4,7h[8:2],,8^5[8:1],
{32},,,,,,,,,,,,,,,,4,3,2,1,8,7,6,5,4v2[8:1],,,,,,,,
{8}5h[8:3],,,4,6,2h[8:2],,8v3[8:1],
,7h[4:1],,2,4,3,5^2[8:1],,
6h[8:3],,,3,5,2h[8:2],,1pp4[8:3],
,,4pp4[16:5]*qq4[16:5],,,,,,
35,2,46,7,1h[4:1]/8,,6,6h[4:1],
,3,2,1^4[8:1]*^6[8:1],,1pp5[8:3]*qq5[8:3],,1,
,,,,4/6h[8:2],,2,2h[8:2],
,8,7,6h[8:2],,4,4,,
{16}81,,6,5,7,,3,4,2,,6,5,8,,3,4,
{4}1pp6[4:2]*>6[4:2],1b,,,
{8}35,,46,,35,,6h[8:1],3b,
7h[8:1],2b,8>4[4:1]*<4[4:1],,,,,,
7-5[8:1]/1-3[8:1],26,71,,4,,3h[8:1],5b,
2h[8:1],6b,1w5[16:4],,,,,,
34,45,5/6^3[8:1],,2,,1h[8:1],6b,
2h[8:1],7b,3^6[4:1]*-6[4:1],,,,,,
{16}3qq4[16:4]/5pp4[16:4],,26,,3/5,,,,,,3,5,3,,6h[4:1],,
,,5,,4,,3h[4:1],,,,6,,4,5,4,5,
{8}3h[4:1],,5^8[8:1],,1v6[8:1],2,3,4h[4:1],
,7,8qq8[4:1],,1,2,3,,
{8}6h[4:1],,4^1[8:1],,8v3[8:1],7,6,5h[4:1],
,4,4<1[4:1],3h[8:3],,,,,
2-4[8:1]/6pp1[16:9],,,,4-2[8:1],,,,
2-4[8:1]/1qq6[16:9],,,,4-2[8:1],,,,
1b/5b,2b/6b,3b/7b,,1,8,2,7<2[8:4],
,,,,,,,1,
1>6[4:2],,,6,6<3[4:2],,,3,
3>6[4:2]*p6[4:2],,,,,,,5,
5<2[4:2],,,2,2>7[4:2],,,7,
7V52[4:2]*V58[4:2],,,,,,,,
5qq5[4:1]*pp5[4:1],,,,,1b,1b,,
4qq2[4:1]*pp6[4:1],,,,,8b,8b,,
2-5[8:1],,6-1[8:1],,4-7[8:1],,8-3[8:1],,
6^3[8:1],,2v7[8:1],,1q5[8:1],,8^5[8:1],,
{24}4b,3,2,1h[24:6],,,,,,7-3[8:1],,,,,,,,,1p5[8:1]*q5[8:1],,,1,,,
{32},,,,,,,,4bV26[8:2]/6bV84[8:2],,,,,,,,4b/6b,,,,,,,,,,,,,,,,
{8}2-5[8:1],5V31[4:1],26,7,8p3[4:1],,7,6h[4:1],
,2,2-5[8:1],,2/6-1[8:1],,64,,
{8}7-4[8:1],4V68[4:1],73,2,1q6[4:1],,2,3h[4:1],
,7,7pp4[8:3],,73,,,2,
2h[8:3],,,1,1,5b/6b,5b/6b,7,
7h[8:3],,,8,8,4b/3b,4b/3b,,
{16}1^4[8:1],,1,,8^5[8:1],,8,,3-8[8:1],,3,,6q1[4:1],,6,,
{16},,3,,3h[4:1],,,,5,4,7,,4,5,2,,
{8}15,26,3^8[8:1]/7v4[8:1],48,37,,5,5h[4:1],
,1,1h[4:1],,7,,6,,
{4}5q1[4:1],1q5[4:1],5,3p7[4:1],
7p3[4:1],3,1>1[8:6]*<1[8:6],1,
{8},,,,,,4,6,
7h[4:1]/3,,4h[4:1],5,6h[4:1],4,3h[4:1],7,
8-5[8:1],,3-8[8:1]/8,,6-3[8:1]/3,,6/1-6[8:1],,
{16}14,,,,5,,3,,7,8,7,,2,1,2,,
{16}5/3,,,,47,,6,5,6,,3h[8:2],,,,8v3[8:1],,
,,7h[4:1],,,,2,4,2,,3,5,3p6[4:1],,,,
3h[8:3],,,,,,5,2,5,,6/3h[8:2],,,,5-1[8:1],,
{32},,,,,,,,,,,,,,,,4,3,2,1,8,7,6,5,4-8[8:1]*-7[8:1],,,,,,,,
{16}4,,,,25,,3,4,3,,7h[8:2],,,,1v6[8:1],,
,,2h[4:1],,,,7,5,7,,6,4,6q3[4:1],,,,
6h[8:3],,,,,,4,7,4,,3h[8:2]/6,,,,8w4[8:2],,
,,,,,,,,,,7-1[8:1]/5V36[8:17],,1V72[2:4]/3,,75,,,,,,,,
