&title=[創作譜面]Transcend Lights
&artist=星咲あかり、高瀬梨緒、柏木美亜、東雲つむぎ、皇城セツナ
&first=0
&des=NekoMuseigen
&wholebpm=105
&lv_5=13
&inote_5=(105){1},,
{8}
6qq5[8:3],,,,,,3pp4[8:3],,,,,,
7q5[8:3],,,,,,1<3[8:3],,,,,,
6qq4[8:2]/4,,,1,1,2,3pp5[8:2]/5,,,8,8,7,
7q4[8:2]/4,,,1,1,2,34,4-1[8:1]/5-8[8:1],56,,,{16}8,1,
7p2[16:3]/2,,,,3,,4h[16:4],,,8,7h[8:1],,6,,7/5pp4[8:2],,64,,3,,,,
1h[8:1],,2<7[8:1],,3,3,,4,4qq3[16:3],,7,,6,,5pp6[16:3],,,2,3,,4h[16:5],,,7,6,5s1[16:17],5z1[8:8],,,,,,,,,,,,,,,,,,,,,,,,
8h[16:3],,2,3h[16:3],,7,6h[8:2],,5,,4,,4/3V14[8:2]*pp4[8:2],,,,,,,,,,
5,6,7h[16:3],,3,2h[16:3],,7,8h[8:2],,2,,3,,8qq4[8:3]/4qq8[8:3],,,,,,,,,,,,
1h[16:3],,7,6h[16:3],,3,4h[8:2],,7,,8,,5V38[8:2]/1V74[8:2],,,,,,,,,,
15,,7/3h[8:2],,5,,2,,7h[8:2]/3,,5,,8,,2h[8:1]/6,,3>5[8:2],4,5,,,,,,,,
8,8h[16:4],,4,,5<7[16:1],7qq5[32:5],,53,,,,
1,1h[16:4],,5,,4>2[16:1],2pp4[32:5],,46,,,,
8,8h[16:4],,3,,5<7[16:1],7qq6[32:5],,52,,,,
1h[8:1],,7h[8:1],,5s1[16:3],,8,,,,,,
6h[8:1],,5,7h[8:1],,5,8h[8:1],,7h[8:1],,6,,
3h[8:1],,4,2h[8:1],,4,1h[8:1],,2h[8:1],,3,,
5/4qq5[16:4],,,,8,7,6<2[16:3],,6,,2,,3qq6[16:5],,,,8,,7h[8:3],,,,,,
8h[8:3],,,7,7,6,5<8[32:5],,,,3,,4>1[32:5],,,8,8,7,6h[8:2],,,,8,,
7>2[32:5]/5,,,2,2,,3h[8:1],,5qq2[8:5],,46,,57,,7,,7,,6,,8,,8,,
7h[16:2]/4h[16:2],,,6h[16:2]/3h[16:2],,,5pp5[16:3]/2,,1b,,,,
2h[16:2],,,3h[16:2]/6h[16:2],,,4qq4[16:3]/7,,8b,,,,
7h[16:2],,,8h[8:1]/6h[8:1],,,5h[8:1]/1h[8:1],,,2h[16:3]/4,,,
1,3,6,8,4,2,1b/8b,1b/8b,,,4,,
2-6[8:1]/7,,3,4,2,,8,,7-4[8:1]/5,,6,,7/1-5[8:1],,3>6[16:3],,1,,,,,,
7,,2V46[16:3]/5,,6,6,,7,7,,8>3[8:1],,17,,6-1[32:4],,6v3[16:2],,6,,,,,,45,,
7<4[8:1]/1b,,2b/8,,7/3b,,2b>5[8:1],,1b/7,,8b/2,,7b,,6b/1,,8/3b,,1/5b,,3b/7,,
1s5[8:2],5,3,7,1,,,6,6pp1[8:3],,5,5,,4,4qq1[8:3],,,,,,5h[8:3],,,,,,
1>4[8:1],,,6,6,,7<4[8:1],,3,,2,,1q6[8:1],,,7,7,,8p3[8:1],,,,,,
2h[8:1],,3h[8:1],,4h[8:1],,5h[8:1],,6h[8:1],,7h[8:1],,
8>5[16:3],,,,,,6<3[32:7],,,,,,4-8[8:3]*s8[8:3],,,,,,,,,,,,
1,1h[8:1],,3<6[8:1],,6,6,,7,,
8,8h[8:1],,7<4[16:2],,4,4,,3,,2,,
1,1h[8:1],,2>6[16:3],,6,6,,7,,
8h[8:1],,2h[8:1],,4q8[32:5],,1,,,,,,
3,3,4qq3[16:3],3,,6,4,,8,,
7,7,3pp3[16:4],7,,5,3>8[8:1],,8,,7,,
6,6,5pp6[16:3],6,,4,5,,3,,
2,2,6qq6[16:4],2,,4,6<1[8:1],,1,,2,,
3b,3,4,2b,2,7,4,6,5,4,3<6[16:3],,,,,,7p3[16:3],,,,,,
1p8[8:3],,,,,,,,,,,,5p4[8:3],,,,,,,,,,,,
1h[8:1]/8h[8:1],,,2h[8:1]/7h[8:1],,,3h[8:1]/6h[8:1],,,45,,,
3,4,,6,5,4,3,6,,,45,,
7p3[8:1]/2,,8,4,7,,1,,2-6[8:1]/5,,3,,2/8-4[8:1],,7qq3[16:5],,8,,7,,,,
2,,1<5[16:3],,2,2,,3,3,,4>1[8:1],,73,,8-3[32:3],,7v4[16:2],,8,,7,,,,18,,
7b-3[8:1]/3,,4b/8,,7b/1,,2b-6[8:1],,5b/1,,8/2b,,7bv4[8:1],,5b/8,,3/7b,,2bv5[32:3],,1/4b,,
2,6<1[8:1],6,4,4,,,2,2pp5[8:3],,7,7,,8,8qq5[8:3],,,,,,1h[8:3],,,,,,
5q1[32:5],,,3,3,,4>1[8:1],,8,,7,,6h[16:3],,,3,3-6[8:1]*<6[8:1],,,,,,,,
6h[8:1],,7h[8:1],,8h[8:1],,1h[8:1],,2h[8:1],,3h[8:1],,
4<1[16:3],,,,,,2>7[32:7],,,,,,8pp4[8:3]*qq4[8:3],,,,,,,,,,,,
35,,4/2q6[16:3],2,,6qq4[16:3],6,,8,,7,,
6,,5/7p3[16:3],7,,3pp5[16:3],3,,1,,2,,
3,,4/2q6[16:3],2,,6p1[16:3],6,,8,,7,,
6-2[8:1],,2qq7[32:9]*qq5[32:9],,6,,,,,,,,
46,,53,3,5q2[8:1],2,2v7[8:1],,3,,4,,
5,,46,6,4p7[8:1],7,7v2[8:1],,6,,5,,
4,,53,3,5q2[8:1],2,2v8[8:1],,3,,4,,
5-1[8:1],,1pp4[32:9]*qq6[32:9],,5,,,,,,,,
3-7[8:1],,7pp2[32:9]*qq4[32:9],,3,,,,,,,,
8-4[32:3]/3,,5/2-6[32:3],,4b/8b,,2bpp5[8:10],,
