&title=やっぱり雨は降るんだね
&artist=ツユ
&first=0.11
&des=XVvictim
&lv_5=13+
&inote_5=(130)
{4},,
{8}1-7[8:1],6h[4:1],,,6-4[8:1],3h[4:1],,,3-1[8:1],8h[4:1],,,8-6[8:1],5h[4:1],8,,2/5-3[8:1],5/2h[4:1],,,7/2-8[8:1],2/7h[4:1],,,4/7-5[8:1],7/4h[4:1],,,46,2/6h[4:1],8b,,
{8}8/1-4[8:1],B7,1x,,6/5-2[8:1],B7,5x,,3/4-7[8:1],B2,4x,,1/2-5[8:1],B8,2x,,
8/1-6[8:1],,12,,8/1-6[8:1],8,1/2^5[8:1],,
{32}1x,8x,7x,6hx[8:1],,,,,
{8}5x-2[4:1],6x-1[8:1],,,,,
{8}2-4-8[8:1],5h[8:1],2,,6-4-8[8:1],1h[8:1],6,,
{8}3-5-1[8:1],6,7h[8:1],,8-6-2[8:1],3,4h[8:1],,
{8}4,3h[8:1],2-4[8:
1],,1,8h[8:1],7-1[8:1],,6,5h[8:1],4,4h[8:1],3,2h[8:1],1b-3-5[8:1],,
{8}18,7,6-8-2[8:1],,5x/6x,4,3,
{16}1x/2x,3x,4x,5x,6x,,4x/8x,7x,6x,5x,4x/8x,1x,2x,3x,6/4qq4[4:1],,5b,,
{8}4pp4[4:1],,8,8h[4:1],,1,
{16}7x/2x,3x,5x/4x-8[8:1],,3h[4:1],,4bx,,,,
{16}8x-4[8:1],7x,6xh[4:1],,8bx,,,,
{16}7x/4x-8[8:1],6x/3x,5x/2xh[8:3],,4bx,,,,
{8}Chf[8:5],,3x,4x>1[8:1]b,5x,,,,
{16}18,,8/1^4[8:1],,,5,1^6[8:1],,,5,
1-5[8:1],,,5,1w5[8:1],,,,C,,,,4x/5x,,3,4,2,,
{8}2,2/B6/B7/E7,2,1,1,1/B6/B5/E6,1,8,8,8/B3/B4/E4,8,7,7,7/B2/B3/E3,7,6b,,
{8}3hx[16:3]/1x,8,2hx[16:3]/7x,6,1hx[16:3]/5x,4,7hx[16:3]/3x,2,6hx[16:3]/1x,8,5hx[16:3]/7x,6,5xp3[4:1],,3>5[4:1],,,C,,,
{16}8,,1,,2,,3,4,5,6,7,8,1b/5b,,
{8},,,
{16}1b-3[8:1]/7,,,,1/8-4[8:1],,,7,
{8}8-2[8:1],7-3[8:1],8,7,8^3^6-2[4:1],,8/6,6h[4:1],,,
{16}2b,,5x,5x,8,7,1,6,2,5,1,6,8b-4[8:1],,
{8}7,8,5,6,7-4[8:1],,7x>4[8:3]/1x,,E4,B2,B7,E6,,7,
{16}56,,4h[16:3]/3,,,3,4,,2/4,,5x/1x-4[8:1],,7,,5x/1x-6[8:1],,,,1x/5x,,3,,
{8}2,15,4/8x^5[8:1],,83,2,1-7[8:1],
{16}5,5,1-3[8:1],,
{8}6,7/1-5[8:1],,6hbx[2:1]/1bx,,Ch[4:1],,,,
{16}1b-3[8:1]/7,,,,1/8-4[8:1],,,7,
{8}8-2[8:1],7-3[8:1],8,7,8-4^6-2[4:1],,8/6,6h[4:1],,,
{16}2b,,5x,5x,
{16}8,7,1,6,2,,5,4,6-8[8:1],,
{8}7,4xqq8[8:3],2,7,6,5,4-8[8:1],,43,2hx[4:1],
{32}7x,6x,5x,4xbz8[8:1],
{16},,,,,,,,4hx[16:3]/3x,,,3,4,,2/4,,5b/1b-5[8:1],,,,1b>5[8:1]*<5[8:1],,,,1b,,,,
{8}2/1-5-3[8:1],8,7,,2/1-5-3[8:1],8,7,6,
{16}3/7^4[8:1]b,,2h[4:1],,7bx,,,,,8,7,1,2,7,6,2,3bx,,,
{128},,,,,,
{8}2-4[8:1]/B5,,C,,1-5[8:1]/B6,,E7,,8-4[8:1]/B3,,E3,,7-5[8:1]/B4,,C,,
3/6h[4:1],4,3h[4:1],5,6h[4:1],5,3h[4:1],4,6h[4:1],5,3h[4:3],4,,
{32}2,,,,1,,,,8,,,,8x,7x,6x,5hx[32:9],,,,,
{8}8-4[8:1],8,,
1,8,7,6,54,1,
{32}1x,2x,3x,4hx[32:9],,,,,
{8}1,8,7,
65,6/B4,,,34,3/B5,,,
{48}7h[1:1]/1x,B1,C,B5,,,,,,,,,
{8},,,4,3,2,1b-4[1:3],,
{4},,,,,,,,,,,,
{4},4h[2:1]/E7,C,E3f,
6x/B3/B4,2x/B7/B8,7x/B3/B4,3x/B7/B8,6x/B3/B4,2x/B7/B8,7x/B3/B4,
{16}3x/6x,,2,1,8,7,6,5,8b/4b,,
{8}3,1-5[8:1]/8-6[8:1],27,
{16}1b-3[8:1]/8b-4[8:1],,,,1b/8b,,,6,
{8}1-3[8:1],8-4[8:1],A1/7-5[8:1],A8,A7,2,7/4xw8[8:1],36,E5/B4/E4/A4f/B5/B3,,
{16}7b/2b,,3x,6x,1,6,4,6,1,6,4,6,1b-3[8:1],,
{8}7-3[8:1],1-5[8:1],7-5[8:1],1,7^2[8:1],3,4x<2[8:3]b,,B7,E6,E4,B2,1x/8x,7,
{16}56,,4h[16:3]/3,,,3,4,,2/4,,5x/1x-4[8:1],,7,,5x/1x-6[8:1],,,,1x^6^3[4:1]/5x,,3,,
{8}2,1,8x^5[8:1]b,2,83,2,1-7[8:1],
{16}5,5,1-3[8:1],,
{8}6,7/1-5[8:1],,6hbx[2:1]/1bx,,Ch[4:1],,,,
{32}6h[8:1]/1,2,3,4,,,,,3h[8:1]/8,7,6,5,,,2,,
{8}1-3[8:1],8-4[8:1],A1/7-5[8:1],A8,A7,2,7/4xw8[8:1],36,E5/B4/E4/A4f/B5/B3,,
{16}2b/6b,,7,3,
{16}5,3,8,3,5,,3,5,2-6[8:1],,
{8}1,7-3[8:1]/2,8,17,2,53,2/6>8[16:3],71,6/2,1hx[8:1],
{32}7x,2x/6x,3x/5x,4xbz8[8:1]b,
{16},,,,,,,,4hx[16:3]/3x,,,3,4,,2/4,,1b-5[8:1]/5b-1[8:1],,,,1b<5[8:1]/5b>1[8:1],,,,1b/5b,,,,
{8}2/1-5^3[8:1],8,3,,2/1-5^3[8:1],8,3,
{16}1,1,6^3[8:1]b,,1h[4:1],,6bx,,,,,8,7,1,2,7,6,2,3,6,5,3,4bx/1^6^1[2:1],,,,,,,,
{8},,,,3b/6b,
{16}3,4,2,,7,65,,,4,5,36,,5,4,6,3,7,4,6,2,5,2,3,4,5,6,7,2,3,4,5,6,7,1,6,2,5,3,
4,5,6,7,8b/3b,,
{48}2,,,2h[8:1],,,8bx,7x,6x,5x,,,1,,,1h[8:1],,,7bx,6x,5x,4x,,,
{16}8,7,1,6,2,,3-1[8:1]/5,,35,,,,
7,4,6,3,5,2,4,3,4,2,4,3,4,1,4,3,5,2,6,3,7,4,7,2,7,4,7,1b,,,
2,1,2,,2,1,2,8,3,7,4,6,5x/4x,,12,21,,,26,,37,,
{48}4x/8x,3x/7x,2x/6x,1bx/5bx,,,,,,
{16},2,3,4,5,6,7,8bx/1bx,,2,7>3[8:1],3,6,,7x,,
5,5h[4:1],,B2/B3,,B7/B6,,87,,2,6,1<5-3-7[8:3],5,,3,,,B5/B6,,B1/B2,,Cf,,
,,8bx^6-2[16:3],,,2bx^8-4[16:3],,,5bx,,,3bx,,
1hx[96:1],,2hx[96:1]/6hx[96:1],,3hx[96:1]/7hx[96:1],,4hx[96:1]/8hx[96:1],,
{32}1hx[96:1]/5hx[96:1],B1/B5,C,,,,
{16}7,,4,,65,65,,,
2x,5,3,6h[8:1],1x,2,3,4,8x,3,7,2h[8:1],8x,7,6,5,1x,6,2,7h[8:1],1x,2,3,4,5x,6,
7,8,1x/4x,5,6,7,
{32}8bx/Cf,,,,4x,,,,
{16}3,,2,,
{48}1x,2x,3x,4hx[8:3],,,,,,,,,
{16},,1x,,
{48}8x/5x,7x/4x,6x/3x,5x/2hx[16:5],,,,,,,,,
{16},,8,7,6,5,1,2,3,4,7,6,5b/C,
,,,1-7[8:1],,6h[8:1],,1,,6^3[8:1]b,,2h[8:1],,6,,
{160}8?^2v4[4:1],8x^6v4[4:1],,,,,,,,,
{16},,,,,,,,
E
