&title=ローリンガール
&artist=wowaka
&first=0
&des=敬愛。
&lv_6=14
&des_6=敬愛。
&inote_6=
(195){4},,,,7p6[4:5],
E3h[4:5],,,,,,,2q3[4:5],
E7h[4:5],,,,,,,7p5[4:5],
E3h[4:5],,,,,,,2q4[4:5],
E7h[4:5],,,,,,,2q5[8:3],
5/2,{8}6,7,8,1qq5[8:3],
,1,{4}E5,{8}E4,E3,{4}E2,
7p4[8:3],7/4,{8}3,2,1,8pp4[8:3],
,8,{4}E5,{8}E6,E7,{4}E8,
3qq8[8:3],3/8,{8}7,6,5,4pp8[8:3],
,4,{4}E1,{8}E2,E3,{4}E4,
6pp1[2:1],6/1,{8}2,3,4,5qq1[8:3],
,5,{4}E1,{8}E8,E7,{4}E6,
1b>4[8:1]/4b<7[8:1],1/4,{8}5x,5x,6,4/7p3[4:1],
,1,{4}1,{8}2/4,{16}3,4,{8}3,{16}6,5,
{4}6pp8[16:3],3/6,{8}2x,2x<7[8:1]*>5[8:1],1,2,
,4/8,7/3,6/2,5>2[8:1],2p6[16:3],{4}5,
4,3/5,{8}4x,4x,3,5/2q6[4:1],
,8,{4}8,{8}7/5,{16}6,5,{8}6,{16}3,4,
{4}3qq1[16:3],6/3,{8}7x,7x>2[8:1]*<4[8:1],8,7,
,1/5,1/5,2/6,2/6,{16}1,7,2,6,3,5,
{2}7bqq2[8:3],{4}1h[2:1],{8}3,4,
{4}5pp8[8:3],{8},,,,3,2,
{4}1<7[8:1],1/5,{8}6,8h[4:1],,5pp7<4[8:3],
,1,{4}1,{8}E2,B7,B3,E6,
{4}E4h[4:1]/B3h[4:1],{8}8,8,{4}E6h[4:1]/B6h[4:1],{8}1,1,
{4}2h[2:1]/7>8>1>2>3[4:3],{8},,,,3x<3[1:1],3x,
,,{4}C,{8},,3x<3<7b[4:3],3x,
,,{4}Cf,,,2b,
{16}8h[8:1]/E3,B3,{8}B4,B6/E7,B2/E2,{16}B8,B7,{8}E7,
,2<8[8:1],{4}2,{8}7<5[8:1],7,4h[16:1],{16}3,2,
{8}1,6,{4}7/3h[8:1],4/8h[8:1],{16}2,3,{8}4pp6[4:1],
,2,{4}2,{8}1>5[4:1],1,5<8[4:1],5,
8q2[8:3],,,,,8,7,6/4,
,7,{4}7,{8}8<4[4:1],8,4>1[4:1],4,
1p7[8:3],,,,,3,2,1h[4:1],
{16},E1,E8,E7,E6,E2,E3,E4,{8}E5,8/2,{16}1x,1x,{8}1x,
{4}Cf,6/5xh[4:1],{16}6x,7x,8x,1x,{24}2x/B5,B6,B7,B8,B1,B2,
{8}B3h[4:1],8h[8:1],,7h[8:1],{16},,4,5,{8}4,{16}6,5,
{4}6<1[8:1]*q2[8:1],6,{8}3,3,8,8,
1/2,{16}3,4,{8}3,4/5,3>1[8:1],6,{4}3,
Cf,3/4xh[4:1],{16}3x,2x,1x,8x,{24}7x/B4,B3,B2,B1,B8,B7,
{8}B6h[4:1],1h[8:1],,2h[8:1],{16},,5,4,{8}5,{16}3,4,
{4}3>8[8:1]*p7[8:1],3,{8}6,6,1,1,
{16},,7,8,{8}7,1,6/2,6,{16}3,4,3,4,
{4}2<7[8:1],2,{8}6/8,1,2,5/3h[4:1],
,4,{4}5/2,{8}1/8,2,{4}3,
4/6pp5[8:3],8,{8}3,3,2,1pp8[8:3],
,7,{4}7,{8}4,4,{4}5,
7>2[8:1],7,{8}3/1,8,7,4/6h[4:1],
,5,{4}4/7,{8}8/1,7,{4}6,
5/3qq3[8:3],1,{8}6,6,7,8qq8[8:3],
,2,{4}2,{8}5,5,{4}4,
{24}8bx,7x,6x,5x,4x,3x,{4}1w5[8:1],{8}1,{24},,,,,,2bx,1x,8x,
7x,6x,5x,4x,{12}3x,8w4[8:1],,,{4}8,6/2h[8:1],
{16},,3,4,{8}3,{16}3,4,{8}3,{16}3,4,{8}3>1[8:1],{16}3,4,
{4}3,8p4[8:1]/7<5[8:1],7q3[8:1]/8>2[8:1],8/7,
{16}B3,B4,{8}E5,{16}B7,B8,{8}E1,{16}B2,B3,{8}B4,{16}B6,B7,{8}B8,
{16}E2,E3,{8}E4,{16}E6,E7,{8}E8,{16}E3,E4,{8}E5,{16}E7,E8,{8}E1,
{16}5bx,6,5,6,5,6,5,6,4,7,4,7,4,7,4,7,
3,8,2,7,1,6,8,5,{32}7b,8,1,2,3,4,5,6,7,8,1,2,3,4,{16}5,
{24}E1,E8,E7,E6h[4:1],,,8x<4[8:1],1x,2x,3x,,,{8}8b,,,2h[8:1],
{24}B2,B1,B8,B7,B6,B5,B4h[4:1]/1x>5[8:1],8x,7x,6x,,,{4}1b,{8}6,5/6,
,2/4,3,7/5,{16}1,3,{8}2,{16}8,6,{8}7,
,3,7qq5[8:1],5q1[8:1],{2}7,
{24}1<4[4:1],2,3,4h[8:1],,,{8}1b,E2/B2,B8,{24},,,,,,8<3[8:3],1,2,
{8}3h[4:1],8,,B1/B2,{4}E8,{8}1,1,
2,2,3,3,4,4,5,5,
6/3,3/6,2/7,2/7,1b/8b,8b/1b,{24},,,,,,2,
3,4,5h[8:1],,,1,2,3,4h[8:1],,,8,1,2,3,,,{8}1/7,{16}2,6,
{8}2<7[8:1],6,2>5[8:1],5,{4}2,{8}1/7,{16}6,5,
{8}6,4/3,2/5,7/8,{16}4,6,{8}5,{16}7,1,{8}8,
6/2,5/3,4p8[8:1],{16}2,3,{8}4q8[8:1],{16}6,5,{4}4,
{16}B8,B7,{8}E7,{16}B4,B3,{8}E3,{16}B8,B7,{8}B6,{16}B4,B3,{8}B2,
{16}E1,E8,{8}E7,{16}E5,E4,{8}E3,{16}E8,E7,{8}E6,{16}E4,E3,{8}E2,
{16}A8,A7,{8}A6,{16}A4,A3,{8}A2,{16}B8/E8,B7,B6,B5,B4,B3,B2,B1,
B8,B7,{8}B6h[8:3],,,{4}1bxh[4:1],8bxh[4:1],
{24}1,2,3,4h[8:1],,,2<5[4:1],3,4,5h[8:1],,,{8}2b,{24},,,,,,8,7,6,
5,4,3,2,{12}1h[12:1],{24}5<2[4:1],4,3,2h[8:1],,,{4}5b,{8}3,4/3,
,7/5,6,2/4,{16}8,6,{8}7,{16}1,3,{8}2,
,6,2pp4[8:1],4>1[8:1],{2}2,
{24}8b>6[8:3],7,6,5h[8:1],,,{8}8,E8/B7,B1,{24},,,,,,1b>6[8:3],8,7,
{8}6h[4:1],1,,B7/B8,{4}E2,{8}8,8,
7,7,6,6,5,5,4,4,
3h[8:1],7h[8:1],4h[8:1],8h[8:1],5bxh[8:1],1bxh[8:3],{24},,,,,,5,
8/4,7/3,6/2,5/1,4/8,{4}3/7,{8},,1,{24}1,,8,
7,6,5,4,3,2,{4}1w5[8:1],1,{8}8/2,{16}3,4,
{8}3,5/6,7/4,2/1,{16}5,3,{8}4,{16}2,8,{8}1,
3/7,4/6,5p1[8:1],{16}3,4,{8}5q1[8:1],{16}7,6,{4}5,
{16}3b,4,3,4,3,4,3,4,2b,5,2,5,2,5,2,5,
1b,6,1,6,1,6,1,6,8b,7,1,6,2,5,3,4,
{24}1b,2,3,4,5,6,7,8,1,2,3,4,5,6,7,8,1,2,{32}7/3,6,5,4,3,2,1,8,
7,6,5,4,3,2,1,8,7,6,5,4,3,2,1,8,{8}7/3,5/1,
E
