&title=Dancing on the Moon
&artist=roop
&first=0.01
&des=Nayutan on the Moon
&lv_6=13
&inote_6=(130){1},
{4},,,1p4[8:1]/8v5[8:1],
{1}1b/8b>7[16:11],
{8},1,2,3,4h[16:1]/6h[8:1],,5/3h[8:1],,
{8}4-2[8:1],,5-1[8:1],,6,6-8[8:1],,4-2[8:1],
{8}5,6-4[8:1],7,1h[4:1],,7,8q5[8:1]/1v4[8:1],2,
{2}8b/1b<2[16:11],1,
{8}8,,8,7,6/4,2,3/5,7,
{16}4,6,1,,5,3,8,,5,6,1,,4,3,8b-4[8:1],,
{8},8/3-1[8:1],,3/5-7[8:1],,5/8,8,8,
{16}7/8,,5/6,,4/3h[16:1],,2/1h[16:1],,,2,,8,8,,1,,
{16}8h[8:3]/7b,,,6-4[8:1],,,,,8h[8:3],,,4-6[8:1],,,,,
{16}1h[8:3],,,6-4[8:1],,,,,1h[8:3],,,4-6[8:1],,,,,
{16}2h[8:3],,,6-4[8:1],,,,,2h[8:3],,,4-6[8:1],,,,,
{4}3-5[8:1],7-4[8:1],1-5[8:1],8b,
{16}4-2[8:1],,5,,6qq7[16:5],,7,,1,,1h[8:1],,,1,,,
{8}8-2[8:1],7,5-3[8:1],6,7-5[8:1],8,2h[8:1],,
{16}4-2[8:1],,5,,6qq7[16:5],,7,,1,,1h[8:1],,,1,,,
{8}8h[12:1],4h[12:1],6h[12:1],2h[12:1],4h[12:1],8h[12:1],6h[12:1],2h[12:1],
{16}5-7[8:1],,4,,3pp2[16:5],,2,,8,,8h[8:1],,,8,,,
{8}1-7[8:1],2h[16:1],4-6[8:1],3b,2-4[8:1],1,7h[8:1],,
{8}5-7[8:1],4,3V15[4:1],2,8,7,6,6,
{8}5/6,4/5,3/4,2/3,1/2,7/8,6/5,3/4,
{1}1bpp7[2:1]/5bpp3[2:1],
{4}1^6[16:3],5pp4[16:5],,,
{8}2qq6[16:7]/3q5[16:7],,,,,,,8-5[8:1],
{8},8>5[16:3],,8,,7<1[4:1]*<1[4:1],,7h[4:1],
{8},,8,7,6/5,7,8/2,3,
{8}2/4,1,7/8,6,5/7,8,1/3,4,
{8}3/5,3/5,2/6,2/6,1/7,1v4[8:1]/7v4[8:1],8,1bpp5[8:5]/7b,
{1},
{8}7b^4[8:1]/3b,8/4,2V48[4:1],1,8-2[8:1],7,6,5,
{8}4-8[8:1]/3,5/1,3V15[4:1],2,5-3[8:1],6,7,8,
{8}1^4[8:1]/2,8,1/7V51[4:1],6,2,3-8[8:1],4,3b/6-1[8:1],
{8}5,6b/3-8[8:1],4,3b/6-1[8:1],5,6b/3>5[32:7]*>5[32:7],4,3b/5b,
{8},,3/4V68[8:1],2,1,1,2,3/8,
{16}7/4,,5,6,1,,4,3,6,5,8,,1/2,,3/7,,
{8}4-8[8:1]/6,7/5,6,5,2/6,1v4[8:1]/7v4[8:1],8,1b/7b,
{16},,2/8,,1,,7,7,8,6h[16:3],,,1,8,2h[8:1],,
{8}7qq4[16:9],3qq8[16:7],,,,,,,
{8}4V28[8:1],8V64[8:1],,,,8,8,8,
{8}8b-5[8:1]*>5[8:1],,8,,1b-4[16:1]*^4[16:1],,1,8b,
{8},1b/3b,,4b/5b,,7bV53[8:1]/6b-2[8:1],,7b/6b<4[16:3],
{8},,5b,,1,1,2/1,3/8,
{16}7/4,,5,6,1,,4,3,6,5,8,,1/2,,3/7,,
{8}4-8[8:1]/6,7/5,6,5,2/6,1v4[8:1]/7v4[8:1],8,1b/7b,
{8},8v5[8:1]/2v5[8:1],1,8b/2b,,1bz5[16:3]/7bs3[16:3],8b,,
{4},8-4[8:1],4>6[1:1],,
{1},
{4}1-5[8:1],5<4[4:5],,,
{1},
{4}8-3[8:1],3>5[4:5],4,4,
{4}4,4,4,4,
{4}1-5[8:1],5<3[8:9],4,4,
{4}4,4,4,{32}4,5,6,7,8,1,2,3,
{8}4w8[12:1],,4b,,2V46[8:1]/6,1/5,7-3[8:1],8,
{8}2^5[8:1],1,8V64[8:1],1,3-7[8:1],2,1-5[8:1],8,
{8}7-4[8:1]/1,6,3-8[8:1]/7,2,5-1[8:1]/3,6,4<3[4:1]/5,3,
{16}8h[4:1]/4,,,,,,,,7,5,6,,2,4,3,,
{24}5,,5,4,,4,6h[12:1],,,3,,3,4,,4,2h[12:1],,,8,,2,7,,3,
{24}6,,6,4,,4,5h[12:1],,,2,,2,4,,4,3h[12:1],,,7,,3,6,,4,
{24}6,,6,5,,5,7,,7,3,,3,4,,4,2,,2,8,,1,7,,2,
{24}5,,4,6,,3,7,,2,8,,8,1,8,1,8,1,8,1,8,1,8,1,8,
{4}1pp6[2:1],8h[16:1],8h[16:1],8h[16:1],
{4}6qq2[2:1]/8h[16:1],8h[16:1],8h[16:1],8h[16:1],
{4}5-1[8:1]/7h[16:1],6h[16:1],4-8[8:1]/2h[16:1],3h[16:1],
{4}7-3[8:1]/5h[16:1],8h[16:1],2-6[8:1]/4h[16:1],1h[16:1],
{4}8qq3[2:1],1h[16:1],1h[16:1],1h[16:1],
{4}3pp7[2:1]/1h[16:1],1h[16:1],1h[16:1],1h[16:1],
{4}2h[16:1]/4V25[2:1],6V85[2:1],,,
{4},,,,
E
