&title=Cosmic Fantastic Lovesong
&artist=DINY
&first=0.15
&des=remdayo
&lv_5=13+
&des_5=remdayo
&inote_5=
(68){8},{16}5,6,{8}3b/7bh[8:3],{16}1,2,,,{8}3h[2:1],{16}8,7,6,5h[16:3],
,,,,6h[16:1],4h[16:1],5h[16:1],3h[4:1],,E6,,E7,{24}E8fh[12:1],E1,E2,E3fh[12:1],E4,E5,
E6fh[12:1],E7,E8,E1fh[12:1],E2,E3,{16}E4/B4,2/6<1[8:1],5/3,{32}4,5,{16}4,4,3-6[32:3],2h[16:3],,,,7h[16:3],
,8,1bw5b[8:1],2,{32},,,,A1,B1,C,B6/B5/B4,{4}A6/D6/A5/D5/A4,{24}4b-1b[12:1],5,6,5b-8b[12:1],4,3,
8x,7x,6x,1x,2x,3x,{16}4bxh[2:1],6,{8}7,{16},B2/A2,B8/A8,B6/A6,,6/3,7/2,8h[16:5],
{32}A6,D6,A5,D5,A4,D4,A3,D3,{16}2bxpp6[4:1],B1,{8}B7,{16},B3/E4/B4,E1,E8,,2/7,1/8-4[16:1],{32}6-2[16:1],8,
7,8,{16}7,A8f,A4f,A2f,5/4,3/6-8[16:1],{32}5,4,{16}5,5/4,E4f,E2f/B1/B2,5,5/4,6/3,{32}4,5,
{16}4,5/4,6/3,2/7,{4}B8/B2/C/B3/B4/B5/B1,B7/B8/B1/B2/C/E6/B5/B4/E4,5-8[8:1],
E4fh[8:1],{32}B6h[8:7],,,1h[32:1],,,{16}2h[8:1],,B2,B4,3,{32}B7h[8:3],,,4h[32:1],,,{16}2h[8:1],
,B2,3,5/3,{32}B3h[8:7],,,8h[32:1],,,{16}7h[8:1],,B7,B5,6,{32}B2h[8:3],,,5h[32:1],,,{16}7h[8:1],
,B7,6,5/4,3>6[16:1],B6,B5h[16:3],B4h[8:1],{64}E3,E2,E1,E8,{16}E7,7b/2b,3,6<3[16:1],B3,B4h[16:3],B5h[8:1],
{64}E7,E8,E1,E2,{16}E3,7b/2b,3,4/5-8[16:1],B4,B3h[16:3],B2h[8:1],{64}E6,B6,B7,E8,,,,,{16}7/2,6/3,5/4h[2:1],6,7,8,
1,8,7,6,5b,{32}6,5,{16}7,6,7/E4h[8:5],8h[8:1],{8}E5f,{16}5,{32}6x,7x,{16}8x,7,
{8}6h[16:1],{16}E3f,8/1,7/2,{32}3,3,{16}4,5/4,2/E6h[8:5],1h[8:1],{8}E5f,{16}3,{32}1x,2x,{16}3x,2,
{8}3h[16:1],{16}E7f,3,{8}2/7,{16}6,7-3[16:1],5h[8:1],4h[16:1],,2h[4:1],,6,{8}7h[4:1],
{16}5-8[32:3],4,3,2,1,{32},,,,1,2,{16}3/6h[8:1],{32},,,,8,7,{4}6/3h[4:1],
{16},,,5b/4b,6b/3b,7b/2b,{8}8b/1b,{16},,6,7,8b/1b,1/2,3/2-7[24:1],{32}6-3[24:1],5,
,3,{16}4,2,6,4/5,2/7,1/8-4[24:1],{32}2-6[24:1],3,,7,{16}6,8,2,,2,2,{32}2,2,
,2,{16}2,2,2,{24}2,2,2,2,2,2,2,2,2,2,2,2,{16}2,2,2,2,
{32}2,2,{16}2,2,2,2,2,2,2,{32}2,2,{16}2,2,2,2,2,2,2,
2,2,{32}2,2,{16}2,{4}2,{16},2,2,2,,,{8}2,
{16}2,2,{32}2,2,{16}2,2,2,2-6[16:1],{32}2-7[16:1],2,,2,{16}2,2,2,2,2,2-7[16:1],{32}2-6[16:1],2,
,2,{16}2,2,2,{24}2,2,2,2,2,2,2,2,2,2,2,2,{16}2,2,2,2,
,2,2,2,{8}2,2,2,{16}2,2,,,,2,
,2,2,2,{4}2,{16},,,,2,2,{8}2,
{16},2,2,2,,2,2,{32}2,2,2,2,2,2,2,2,2,2,{16}2,2,{8}2,
{16},2,2,2,,2,2,{32}2,2,2,2,{16}2,{32}2,2,2,2,{16}2,2,2,{32}2,2,
{16}2,2,2,2,2,2,2,{32}2,2,{16}2,2,2,2,2,{32}2,2,2,,,2,
2,2,{16}2,{24}2,2,2,{16}2,{32},,,,2,2,{4}2,{16}2,,,2,
E
