&title=Humanity
&artist=Nhato/Taishi
&first=0
&des=NaOH
&clock_count=4
&lv_5=13
&inote_5=(150)
{4},,,,,,,,
3h[4:2],,4h[4:2],,5h[4:2],,6h[4:2],,
2,3,4,{8}5,5h[8:3],,3,3,,3,4,25,,
6h[4:7]/1h[4:1],,,,2h[4:1],,,,3h[4:1],,,,4h[4:1],,,,
7,5,6,4,5,3,4,4h[8:3],,3,2,1,8w4b[8:1],,8,,
6xh[4:3]/4x-2[12:1],,,,4-8[8:1],,,,4-2[12:1],,6V84[4:1],,3h[4:1],,,,
2h[4:3]/1-7[12:1],,,,1-5[8:1],,,,1-7[12:1],,3V51[4:1],,6h[4:1],,,,
5h[4:3]/3-6[8:1],,,,7-2[8:1],,,,3>8[8:1],,7<4[8:1],,1s5[4:1],,6,6h[8:3],,,
4>1[4:1],,1<6[4:1],,6>2[4:1],,7xh[8:4],,,,B1/E2,,E6/B5/E4/B4,,
7h[4:2]/1-3[12:1],,,,1-5[8:1],,,{16}8x,7x,6x<1[8:1],,,,2,,3x,4x,5x-1[8:1],,,,57,,,,
{8}2h[4:2]/8-6[12:1],,,,8-4[8:1],,{16}1,1,,,2,4,3,,3,4,,,2v1[8:1]/5v6[8:1],,,,,,,,
{8}7h[4:3]/4-1[8:1],,,,2-5[8:1],,,,7<4[8:1],,3>8[8:1],,5s1[4:1],,2,2h[8:3],,,
7<4[4:1],,4-8[4:1],,3,,{16}2,,,34,,,56,,7x,8x,1x,2x,3x,4x,5x,6x,
{4}7bxv5-2-7^5^3^1^7b[4:15]/2bx,,,,,,,,,,,,,,,,,,,,,,,,
Cfh[4:7],,,,,,,,
{8}
1x/5x,,2,4,2,6,2,8,2-4[4:1],,4-6[4:1],,6-8[4:1],,8-2[4:1],,
C,,6,6,5,5,{16}E8,E7,E6,,{8}2x-5[8:1],,1x-6[8:1]/2x,,1x-4[8:1]/2x-5[8:1],,,,
37,,6,5,E8,E7,E6,4h[8:3],5,,6,7,78,78,16,16,
2-5[8:1]/5,,7-4[8:1]/2,,1-6[8:1]/7,,8-3[8:1]/1,,5p4b[8:4],,,Cfh[8:3],,,,,
2x,6x,8,4,2,6,8,4,2>6[4:1],,6<2[4:1],,2>6[4:1],,6<2[4:1],,
C,,5,5,4,3,21,8,2-5[8:1]/1,,8-4[8:1]/2,,1-5[8:1]/8-6[12:1],,18,,
18,,3,6,4,5,46,37,2>5[8:1],,6,7,8-4[8:1],,1-3[12:1]/8,,
7-5[12:1]/1,,8-4[8:1]/7,,7-3[8:1]/8,,1-5[8:1]/7,,
7p4>5b[4:5]/1,,,1x,1xh[4:5],,,,,,,,,,6-4[12:1],,
2-8[12:1]/6,,7-3[8:1]/2,,1V35b[8:1]/7,,1V75[8:1]/7,,
3-1[12:1]/1,,7-3[8:1]*-5[12:1],,7-1b[12:1],,7,,
7-5[12:1]/5-1[8:1],,7-3[8:1]/5,,2-5b[8:1]*-8[12:1]/7,,2,,
1x>4[8:1]`5x<8b[8:1],,5xp1b[8:1]`1xp5[8:1],,1x>4[8:1]`5x<8b[8:1],,1bx`5bx,,
6-8[12:1]/2,,2-4[12:1]/6,,7-3b[8:1]/2,,2V46[8:1]/7,,
8-4[8:1]/2,,3-1[12:1]*-8[8:1]/8,,3-6[8:1]*-5b[8:1],,3,,
2x-4[12:1]/6x-8[12:1],,2-8[12:1]/6-4[12:1],,2-5[8:1]/6-1b[8:1],,26,,
4-1[8:1]/8-5[8:1],,48,,{16}36,,,18,18,,27,,
{8}1-5[8:1]/8-4[8:1],,{16}1b/8b,Cf,,,
{4}7-2[8:1]*-4b[8:1],7,
2x-4[12:1]/4x-8[8:1],2-6[8:1]/4,7^2b[8:1]*^4[8:1]/2,7,
8-4[8:1],2-6[8:1]/8,8V24[8:1]*V64b[8:1],8,
8x<5[8:1]`4x>1b[8:1],4xq8b[8:1]`8xq4[8:1],8x<5[8:1]`4x>1b[8:1],8bx`4bx,
6-4[12:1]/3,2-8[12:1]/6,5-3[12:1]*-7b[12:1]/2,5-1[8:1],2-4[12:1]*-6[8:1],
2-8[12:1],4-8[8:1]/2-4b[12:1],2-6[8:1]/4,6-4[12:1]/2,
8V24[8:1]/6x,6-2[8:1]/8,8V24[8:1]`8!V64b[8:1]/6,8b,{8},C,
{32}E2,E1,E8,E7,E6,E5,E4,E3,E2f,,,,,,,,
{8}6xh[4:2],,,,Ch[4:10],,,,,,,,,,,,,,,,,,,,5h[8:1],,5h[8:1],,4h[8:1],,4h[8:1],,
7,6,5,4,3,2,1,8,7,6,5,4,3,2,1,8,
{32}B8,B7,B6,B5,B4,B3,B2,B1,B7,E6,E5,E4,E3,E2,E1,E8,E7,D6,D5,D4,D3,D2,D1,D8,D7,D6,,,,,,,
{4}B2/E3/B3f,B7/E7f/B6,Cfh[4:1],,
{16}
2h[8:1],,4h[16:1],,2h[8:1],,4h[16:1],,3h[8:1],,5h[16:1],,3h[8:1],,5h[16:1],,
4h[8:1],,6h[16:1],,4h[8:1],,6h[16:1],,5h[8:1],,7h[16:1],,5h[8:1],,7h[16:1],,
2,,3,4,3,,6,5,6,,3,4,2,,6,5,7,,3,4,1,,6,5,8-4b[8:1],,2,8,1b,,,,
7h[8:1],,5h[16:1],,7h[8:1],,5h[16:1],,6h[8:1],,4h[16:1],,6h[8:1],,4h[16:1],,
5h[8:1],,3h[16:1],,5h[8:1],,3h[16:1],,4h[8:1],,2h[16:1],,4h[8:1],,2h[16:1],,
7,,,,3x,4x,5x,6x,3x,4x,5x,6x,2x,3x,6x,7x,2x,3x,6x,7x,1x-5b[8:1],2x,7x,8x,1x,,,,
E3/B2/B1/E1f/B8/B7/E7,,,,
{4}3xqq4b[4:2],5-8[8:1],5b,6-8[12:1],
6qq7b[4:2],1>4[8:1],1b,2-4[12:1],
2qq3b[4:2],4<7[8:1],4b,6-4[12:1],
6pp5b[4:2],4-1[8:1],4b,C,
48,8-4[8:1]/3,28,18,27,2-7[8:1]/6,25,24,
35,3-8[8:1]/6,37,36,43,4-7[8:1]/2,41,8-4b[8:1]/4,{16}1b/8b,Cf,,,
