&title=ln(guis·tics)
&artist=Sephid
&first=1.06
&des=合作だよ
&lv_5=14+
&inote_5=(175)
{16}
,
,5,2,4,2,5,4,5,3h[16:1],,7,4,7,3,5,3,6h[16:1],,{32}2,3,4,,{16}7,5,6,4,5,3,{32}3,2,1,,{16}4,{32}4,5,6,,{16}8,7,{32}1,2,3,,{16}8,4,8,4,
7,3,5,1,6,2,8,4,{24}7,6,5,3,2,1,{8}4b-8[8:1],8,4b,2bV46[16:3],,,7-1[10:1],,7bp5[16:8],,5,,4,,3-1[10:1],,4b-6[10:1],,4,8bq4[8:1],,8,6<8[10:1],,6bp4[16:8],,5,,3,,2-8[10:1],,3b-5[10:1],,3,7b-3[8:1],,7b,5<8[8:1],,5bp3[16:8],,5,,1h[16:2],,8<5[8:1],2,1b>4[8:1],,1,6b-1[8:1],,5b-2[8:1]/6,,5b,8b-4[8:1],,8b,1b-5[8:1],,4bqq1[16:14],6bpp1[16:12],,,,,,,,,,{8}2b/8b<2[12:15],,,,1h[16:4],,,,1h[16:4],,,,1h[16:4],,2>8[12:15],,3h[16:4],,,,3h[16:4],,,,4h[16:4],,,,{16}1,8,1,8,2b,,6b,,
1,7,1,7,1,7,{32}1,2,3,,{16}5,4,6,5,7b,,3b,,{32}8,7,6,,{16}1,5,1,5,{32}2,3,4,,{16}6,5,6,5,8b,,4b,,{32}7,6,5,,2,,8,,2,3,4,,7,,1,,7,6,5,,2,,8,,2,3,4>5[12:7],,7,6,5p4[12:6],,{8},,,,,,,,
{16}1,1,1,,
{8}2b/8-6[8:1],,3-1[8:1],,4-6[8:1],,1,,7-3[8:1]/8,,2,,4/1-5[8:1],,
6h[4:1],,4,6h[4:1],,,56,4,31,8,8,{16}8,1,{8}6,2,35,35,{16}4,4,4,,
{8}5b/3-1[8:1],,6-4[8:1],,2,2,3-1[8:1]*-7[8:1],,3b,,
26,,7-5[8:1]/8p4[8:1],1,7b/8b,,3-1[8:1]/4p8[8:1],,4b/3b,,7w3[8:1],,7b,,
{16}18,,2,4,3h[8:1],,6,5,7h[8:1],,1,,17,62,35,,
{8}8b-4[8:1],,2-5[8:1],,2-8[8:1],6,6b-8[8:1]*-2[8:1],,6b,,
{16}28,,3,4,3,,6,5,{8}7b-4[8:1],,7/8,,2b-5[8:1],,2/1,8,7,64,46,{16}4,6,2,,5,,3,,8,2,
{8}6b,43,1,57,8,34,{16}7,,7,8,{8}5b,34,1,{24}17,6,5,{8}2b/4,{24}2,3,4,{8}7b/5,7,
{32}7,6,5,,3,,3,,8,7,6,,4,,4,,1,8,7,6,3,,3,,8qq1[12:6],7,6,5,3,2,1,,,,,,,,,,
{4},,{24}5/4qq3[4:1],6,7,1qq6[2:1],2,3,,,,,,,,,,{8}5,5-2[8:1]*-3[8:1],,5b,,{16}8,6,8,,3,,2,1,2-5[8:1],,7,,8V62[16:3],,,,
4h[4:1],,,,,,8,3,6,,{24}1,7,8,7,,,{16}5,6,3,,7,7,5>2[12:1],,8,,1b-6[8:1],,,,8bw4[8:1],,,,
8b,,,,1,,4,2,5,,56,,7,8,7,,1,,1/8,,18,,2,4,3,6,4,5,3b-8[12:1],,,,4<3[4:3],,,,{4}3h[8:1],3h[8:1],4h[8:1],{8}4,4,{16}4,5,4,5,1b,,3b/4b,,5b/7b-4[8:1],,8b,,
{8}1-5[8:1],,6-2[8:1],,4-8[12:1],,7-3[8:1],,2-8[8:1]/7b,,4-6[8:1],4,2-8[8:1],2,5-3[8:1],6,
5b/7,,5-1[8:1]/6,,5/4b,,2-4[8:1]/8-4[8:1],,2b/8b,,1/2b,5b/6,2/8b,{16}8b,1b,7b-4[8:1],,5,,
{8}7b/1-5[8:1],1,6-1[8:1],6,2-6[8:1],2,8,8,1b/7,3,2b/4,3/8b,5b/6,7b,28,46,{16}7,7,4,6,1,1,5,3,{32}5,6,7,8,1,2,3,4,5,6,7,8,1V75[8:1],2,3,4,{8}5V31[16:3],,,,,6,
{16}8-4[8:1]/2,,,,1h[1:1]/8b,,,,,,,,,,,,,,,,
{16}5>2[8:1],,,,6,,6,,,,81,,,,,,
{16}7-3[8:1],,,,2,,2,,,,1h[8:3],,,,,,
{16}4<7[8:1],,,,2,,3,,,,84,,,,,,
{16}5>1[2:1],,,,7,,,,6,,,,4,,5,,
{8}6V48[2:1],,4,,3,,1,2,8-5[8:1]/3,,3-8[8:1],,6-3[8:1],,1-6[8:1],,
{16}5pp4[8:3],,,,4,,,,3h[16:1],,2h[16:1],,1h[16:1],,8h[16:1],,
{16}7/4^2[8:1],,,,64,,,,7h[8:1],,5,,7h[8:1],,6,,7h[8:1],,8,,7h[8:1],,1,,7h[8:1],,2,,8p4[8:1]/1,,,,82,,,,
{16}2,,5,,1q5[8:1],,,,16,,7-3[8:1],,,,4qq8[8:3],,,,1,,,,7,,
{16}6,,5,,
{16}53,,2,,71,,6,,3,4,2,5,1-5[8:1],6,8,7,1V38[16:7]*V74[16:7],,,,,,,,,,,,,,,,
{16}1b/5b>6[8:4],,,,2h[8:4],,,,,,,,,,15,,1s5[6:1],,,,6,,6<1[8:1],,,,2,,,,3,,3V52[8:2],,,,8,,8z4[4:1],,,,1,,,,3p6[8:3]*>6[8:3],,,,,,,,,,,,
{16}5,,4,,3,,2v8[6:1]/6,,,,7,,7V13[4:1],,,,3V57[4:1],,,,7V13[4:1],,8,,,,,,4v6[6:1],,,,,,7,,8,,1,,,3/5V74[4:1],,,5/7,,,,,,{16}8,,8<1[12:8],,,,2,,,,4p8[6:1],,,,,,,,,,
{16}7-4[8:1],,,,,,2,,2-4[8:1]*-8[8:1],,,,2,,,,6-4[8:1],,,,6,,2,,1-3[8:1]*-7[8:1],,,,1,,,,5-1[8:1],,,,5,,2,,3-6[8:1],,,,3,,7,,8^5[8:1],,8,,,,3pp5[4:1],2,1^4[8:1],,,,,,,,
{16}7-1[8:1],,,,,,3,,4-2[8:1]*-6[8:1],,,,4,,,,1-5[8:1],,,,7,,6,,6-3[8:1]*-1[8:1],,,,6,,,,2,,2,,5,,4,,63,,5,,24,,1,,7,8,7,,26,,53,,4h[16:1],5h[16:1],4h[16:1],5h[16:1],3h[16:1],4h[16:1],3h[16:1],4h[16:1],
2h[8:1],,5,4,7h[8:1],,3,4,1h[8:1],,7,8,,8,6,,
2,,12,,18,,7,8,6h[8:1],,5h[8:1],,4h[8:1],,3h[8:1],,
6h[8:1],,8,7,2h[8:1],,1,2,7h[8:1],,4,6,,6,2,4,
3,6,1,,18,,7,3,5,4,6,5,4/7b,,,,
{32}3,4,{16}3,5,2,6,1,7,2,8,8,3,3,7b,,,,
{32}6,5,{16}6,4,7,{32}3,4,5,,,,8,,2,1,2,1,,,,,7,8,7,8,,,,,
{16}1,1,1,1,1,1,1,1,1,1,1,1,1,1,1,1,
1h[16:8],,,,,,{24}4z8[8:2],5,6,{16}7,,,,,,,,
1b>4[8:1]/7b,,2,7,1v6[8:1],,5,5,1,,8,8h[8:1],,5,6,4,
7-3[8:1],,3,,1<6[8:1]/7,,2,,1>4[8:1],5,,5,1,,7,,
6-2[8:1],,7,5,6<1[8:1],,3,3,6,,4,4h[8:1],,6,5,7,
2<7[8:1],8,1,,26,,5,5h[8:1],,3,4,2,6,,37,,
4b-8[8:1]/5b-1[8:1],3b/6b,2b/7b,,45,,,,2h[8:1]/6,,4,3h[8:1],,6,5,7,
4w8[8:1],,35,,4,,,,2,6,3,4,1,8,5,6,2,2,4,3,6,5,7,2,5,5,2,7,3,5,1,6,
{32}8,1,2,3,{16},5,4,7,{32}1,2,3,4,{16},6,5,7,4,6,2,,
1b,1b,1b,1b,1b,,3,5,4-8[8:1],,6,2,4,,1,1,
,7,1,8,2,,,3b/5b,,6,75,,3,24,,,
7<4[8:1],,,,{32}7b/3b,2,1,8,{16},,2>5[8:1],,,,{32}2b/6b,7,8,1,{16},,
8,8h[16:5],,,6b,,2b,,7b/8b,,1b/2b,,5b/7b,,,,
1-6[8:1],6,2,,1>4[8:1]/7,,5,,1,,5h[8:2],,6-4[8:1],7,8,1,
2-6[6:1]/6,,3,,2/8<5[8:1],,7,,38,,4h[16:4],,3,2,1,8,
73,,3,,46,,7,,18,,2,1,,7,8,,
6b-2[8:1]/2b,,,,2b/6b,,1b,,1b,,{32}7,6,5,4,3,,,,2,3,4,5,
{16}6,,1,,28,,37,,2,6,1,5,8,4,7,3,
8h,1h,2h,3h,5,4,6h,7h,8h,1h,5,1,4q6[8:13]*q6[8:13],3,2,1,
8bq2[8:11]/4b,,,,,,,,,,,,,,,,
,,,,,,,,,,,,,,,,
34,,3,,3,,35,,3,,46,,6,,56,,
47,,7,,35,,3,,25,,6,4,7,,3,,
6,5,7,4,8,3,1,2,{32}7,6,{16}5,3,4,2,5,1,6,
{32}2,3,{16}4,6,5,7,4,8,3,{32}7,6,{16}5,3,4,{32}1,2,3,,7,6,5,,
{16}2,4,1,5,{32}2,3,4,,6,,6,,3,4,5,,8,,8,,{16}2,7,{32}1,2,3,4,
7,6,5,4,3,,,,2,3,4,5,6,,,,7,6,5,4,8,7,6,5,2,3,4,5,1,2,3,4,
{16}
,,7b/8,,1-5[8:1]/5,,,,1/6b-2[8:1],,,,6/7b,,8-4[8:1],,,,
8-2[8:1]/3b-7[8:1],,,,8w4[8:1]/3b,,,,8b,,,,,,
3b/4b,,1h[4:1]/5,,,,{32}7b,6,5,4,3,,,,1b/2,3,4,5,6,,,,8b,17,26,35,4,,,,
