&title=Live Fast Die Young
&artist=anubasu-anubasu
&first=0.13
&des=Lancage vs. sacriFY vs. lightningDust
&lv_5=14
&inote_4=
&inote_5=(153)
{4},,,,,,
{8}6h[4:1],5,4,3h[8:5],,,,,,8h[8:1],,8h[4:1],,,2h[8:1],,2h[4:1],,,2h[4:1],4,5h[4:2],,,,,1,1h[4:1],,,7h[4:1],,,7h[8:1],,3h[8:1],,3h[4:2],,,,,6,6h[4:1],,,2,2h[4:1],,,78,7h[4:2]/8h[4:3],,,,,,6-1[4:1],6,,,,2p5[8:2],2,,,8-4[8:1],8,8b<8[8:3],,,,,,7v4[8:3]/1,1v4[4:1]/7,1b/7b,,,,,{16}2,8,2,,37,,4b,6,4,6,3,7,3,7,2b,8,2,8,1h[16:1],,7h[16:1],,3b/5b,,2,,1h[4:1]/7,,6,6,,3,4,,2b/5b,,1b/6b,,
{16}7/8b-4[8:1],,,1,8,,2,,3,4-6[16:1],3,,24,,2,,
{16}7-4[8:1]/1,,,8,7,,8<5[8:1],,1,,8/2>5[8:1],,3,,2,,
{16}6-2[8:1],,,4,6-4[8:1],,3,,6V84[16:3],,2,,6,,1,,
{16}8,7,8,,16,,,6,5,6,,47,4b/7b,,,,
{16}3>8[8:1],,,6,3,,5,,4-8[8:1],3,,3,4,,2,,1-5[8:1],,,7,1,,7,,6<1[8:1],5,,5,6,,4,,
{16}3b-8[16:1],,,7b-4[16:1],,,1b-5[16:1],,,6b-1[16:1],,,2b>1[8:2],,,,1s5[8:3],,,,,,,,6-1[8:1],,6,,6b,,,,
{16}4bq8[8:1],7,7,,4b<7[8:1]*>2[8:1],,,,4b,,,,8/1b-6[8:1],,7,7,1b>4[8:1],,5,5,1-5[8:1],6,6,,1>4[8:1],8,,8,1b,,,,7b-5[8:1]/5-8[8:1],,,,7b-3[8:1]/5,,,,1-6[8:1]/7,,,,1/8<5[8:1],,5,4,3/8b-4[8:1],,4,4,8<5[8:1],3,3,,8-4[8:1],1,,1,8b,,,,{32}1p5[8:1]/5p1[8:1],26,37,48,15,,,,{16}1b/5b,,,,3/7b-3[8:1],,,,7/1b>4[8:1],,8,8,1/5b-1[8:1],,6,6,5b,7,7,,2b-6[8:1]/8b-4[8:1],,37,,2b/8b,,,,
{16}3b-8[16:1]/7,,,6b-1[16:1],,,2b-5[16:1],,,8h[8:1],,,4b-8[8:1],,8b>7[8:5],,4b,,,,,,,,{1}8h[4:2],,,,
{8}3h[4:1],4,5,6h[8:5],2b,,1h[8:1],,1h[8:1],,2h[8:1],,3h[8:1],,4h[4:1]/5h[4:1],,,,36,,8-4[4:1],,1h[4:1],,,,6,3h[8:1]/7h[8:1],,4-8[8:1],8,4,7-5[8:1],,1h[4:1],,,,3qq6[8:4],3,8,8,7,7,5-1[8:1],5,2h[8:1],,3-1[8:1]/8-4[8:1],,38,,,,6-8[8:1],6,2-4[8:1],2,8-2[8:1],8,4-6[8:1],4,8-4[8:1],8,5-1[8:1],,56,,8b,7,46,{16}3,4,2,4,3,,15,,7,8,6,8,7,,15,,3,4,,4,3,,2,1,2,,38,,7,,46,,5,3,5,3,6b,,{24}4,5,3,4b,,6,{16}2,,37,3/7,,2,2/8,,37,,46,,5,5,5b,,46,,4,,17,,5,3,5,4,5,,7,8,7,,1,6,2,5,3,,3,4,3,,25,,46,,7b/8b,,2,6,2,6,3,5,3,5,4,4,4,4,4b,,3,5,4,6,4,6,3,7,2,8,1,1,1,1,1bw5[8:1],,28,,1b>1[8:10],,,,,,,,,,,,,,,,,,,,,,,,,,,,,,,,
{8}3h[8:1],,3h[8:1],,7h[8:1],,7h[8:1],,56,4,38,{16}7,7h[16:3],,,,,3,,3,,
{8}53,5,46,6,57,7,8,1,24,2,35,3,46,4,{16}75,,7,,1,8,1,8,1,8,1,7,1,6,1,5,{32}1b,2,3,4,5,6,7,8,{8}1h[4:1]/5bs1[8:4],,,,2-6[8:1],,2b,,
{16}5/8b,,7,,46,,24,42,,,3-1[8:1],,1-5[8:1],,7,7,,,8V62[16:4],,5-1[8:1],,4,4,,,,,78,,16,,2/5b-1[8:1],,4,,35,,4,4,8<6[8:1],,3,,8-5[8:1],,1,1h[16:3],8-4[8:1],,,,82,,3,3h,,4,,3,3,,42,,5/1bV38[16:3],,4,,1-5[8:1],,6,6,,,7V51[16:3],,8,,3,3h[16:3],,,,,8-4[8:1]/2,,7,1,8,,2,,5-7[8:1]*-1[8:1],,46,,5b,,,,8b,,26,2b/6b,,,45,,78,,1b/6b,1b/6b,,,3b/5b,,4b/6b,,5/7,5b/7b,,,1b/8b,,27,36,45,,
{16}8b-2[8:1],,4,,8,,5,5h[16:1],1-6[8:1],,5-2[8:1]*-2[8:1],,1,,5,,7-5[8:1],,1,,7-3[8:1],,1,1h[16:1],7,,8,,15,,26,,7/3-8[8:1]*-8[8:1],,8,,37,,6,5,4-7[8:1],,1-5[8:1]*-5[8:1],,4,,1,,8>3[8:1],,4,,8,,5-1[8:1]*-1[8:1],5,2,,5,,7,6,5,,8b-4[8:1],,1,,28,,3<6[8:1]*<6[8:1],3,1-5[8:1],,3,,1,,8,,4-7[8:1],,1h[8:1],,4,,8,8,6-2[8:1],,8-4[8:1]*-4[8:1],,6,,8,,1b-5[16:1],,,,3b-8[16:1],,,7b-4[16:1],,,5b-1[16:1],,1,,8,,7b>7[8:3]*<7[8:3],,,,,,,,,,,,,,,,
{16}7bV53[8:1],,,,1-5[8:1]/7,,,,1,,8,8,8,,17,,26,,3,4,,6,5,,47,,38,,12,38,47,,3-1[8:1]/8-4[8:1],,,,38,,,,5-1[8:1],,1V73[16:3],1,5,,2,,2,,2h[8:1],,4-8[8:1],,,1b,,,3b,,37,26,15,48,3b/7b,,,,1>4[8:1]/5,,,,1-5[8:1],,6,6,1,,7,,2/8-4[8:1],,7,,6-1[8:1]/8,,5,,26,,3,4,5b/7b,,2b/6b,,8/3b-8[16:1],,,,{16}6b-1[16:1],,,2b-5[16:1],,,8,,7b<3[8:1],,3b>3[8:5],,7b,,,,,,,,{1}3qq8[4:4]*qq6[16:12],,,,
&inote_6=
