&title=R
&artist=Roselia
&first=0
&des=Kurage
&lv_5=13+
&inote_5=(188)
{4},,{16}6,5,6,5,{4}7,
{8}
54,4h[4:1],,5,5,4,5,4h[4:1],,5,5,4,4,5,4,,
45,5h[4:1],,4,4,5,4,5h[4:1],,4z8[8:3],5-8[4:1],,,,,,
24,24,3,5h[8:1],3,7h[4:1],3h[8:1],,45,45,6<1[8:1],,3<6[8:1],,8,,
75,75,6,4h[8:1],6,2h[4:1],6h[8:1],,18,18,7-3[8:1],,2-6[8:1],,4,,
{4}3h[4:3]/4b>5[16:9],,,,{4}7h[4:3]/3b>6[8:3],,,1bs5[8:1],
{8}1/8b,,7h[8:1],5,6-4[8:1],,3,3-1[8:1],7h[8:1],,5,5,3h[4:1]/6,,8bz4[8:1],,
{8}8/1b,,2h[8:1],4,3-5[8:1],,6,6-8[8:1],2h[8:1],,4,4,6h[4:1]/3,,1bs5[8:1],,
{8}1/8b,,6v1[8:1],4,2h[4:1],,8bz4[8:1],,8/1b,,3v8[8:1],5,7h[4:1],,1>4[8:1]*<6[8:1],,
{8}1b,,2h[4:1],,6h[4:1],,8v3[8:1]*v5[8:1],,
{8}8b,,4h[4:1],,5,{16}4,6,3,7,2,8,
{8}1b,7,46,{16}3,4,{8}2,78,6,34,2h[4:1],8,6h[4:1],4,2,18,27,36,
{8}8,2,53,{16}6,5,{8}7,21,3,65,7h[4:1],1,3,{16}6,4,8,,{8}2-4[8:1]/1-4[8:1],3,,
{8},8-4[8:1]/1-4[8:1],2,,,8-4[8:1]/7-4[8:1],1,,,{16}6,5,{8}7,3,5-1[8:1]/4-8[8:1],,,,
{32}
2b/7b,3,4,5,6,7,8,1,2,3,4,5,6,7,8,1,2,3,4,5,6,7,8,1,2,3,4,5,6b,7,8,1,
2,3,4,5,6,7,8,1,2,3,4,5,6,7,8,1,2,3,4,5,6,7,8,1,2,3,4,5,6,7,8,1,
2,3,4,5,6,7,8,1,2,3,4,5,6,7,8,1,2,3,4,5,6,7,8,1,2,3,4,5,6b,7,8,1,
2,3,4,5,6,7,8,1,2,3,4,5,6,7,8,1,2,3,4,5,6,7,8,1,2,3,4,5,{8}6b,
{8},{16}7,8,{8}7<4[8:1],1,3,2h[8:1],3,8/1b-5[8:1],
,6,6-8[8:1],,2-4[8:1],2-6[8:1],,,
,78,6V47[4:1],4,6,,2,1b-5[8:1]/8,
,7,7-1[8:1],,3-5[8:1],3-7[8:1],,,
{8},{16}2,1,{8}2-6[8:1],8,6,7h[8:1],3,1b/5bqq4[4:4]*z1[8:11],
{1},{4},,,3qq2[8:7]*z7[4:6],
{1},{4},,,1qq8[8:7]*z5[4:6],
{1},{4},,,7qq6[8:7],
{4}3qq2[8:5],,,,,,{8}45,45,45,3b/6b,
{1}
{16}
,,,,4,3,2-5[8:1],,,,7,8,1-6[8:1],,,,
4,3,2-5[8:1],,,,6,7,8-5[8:1],,,,4z8[4:1],3,2b,,
{8},,3-5[8:1],,7-3[8:1],,4,4-1[8:1],,8,8,{16}2,6,{8}4,35,35,2b/6b,
{16}
,,,,3,2,1-4[8:1],,,,6,7,8-5[8:1],,,,
3,2,1-4[8:1],,,,5,6,7-4[8:1],,,,3z7[4:1],2,1b,,
{8},,2-6[8:1],,8>3[8:1],,4-1[8:1],,5-8[8:1],,3,,1,{16}7,3,{8}5,6b/4b,
{16},,3,4,{8}2,6,57,8,12,3,45,{16}6,5,{8}7,{16}4,6,3,7,2,8,{4}1bs5[8:1],
{4}8b/1>8[8:9],{8}7h[8:1],,7,,6,6,,5,5-1[8:1],,1,,8bz4[8:1],,
{4}1b/8<1[8:9],{8}2h[8:1],,2,,3,3,,4,4-8[8:1],,8,,1bs5[8:1],,
{8}1/8b,,3/6-2[8:1],6,1h[4:1],,8bz4[8:1],,
{8}8/1b,,6/3-7[8:1],3,8h[4:1],,1w5[8:1],,
{8}1b,,3>8[8:1],4b/5b,6>3[8:1],,6b/2b,1-5[8:1],
{8},1b/8b,7h[8:1],3h[8:1],{16}8b-4[8:1],4,6,2,{4},
{8}
15,6>3[8:1],3-7[8:1],6,2,1-4[8:1]*-6[8:1],8,1,
,7V51[4:1],2-4[8:1],1,2,,8-6[8:1]/5-1[8:1],,
,,2h[4:1],4,6h[4:1],4>6[8:3],3,24,
,5,5-1[8:1],,8,8,27,2b/7b,
,3<6[8:1],6-2[8:1],3,7,8-5[8:1]*-3[8:1],1,8,
,2V48[4:1],7-5[8:1],8,7,,1-3[8:1]/4-8[8:1],,
,,7h[4:1],5,3h[4:1],5<3[8:3],6,7b/5b,
,4,4h[4:1],,{16}3,5,4,,2,6,4,,
{8}
1b-5[8:1]/7b<4[8:1],,17,,3>5[8:3],,4,4h[8:3],
,,1-5[8:1],,7<4[8:1],,3,3,
12,8,1h[8:1]/7,6,7h[8:1]/5,4>1[8:1]*v7[8:1],35,,
,8<5[8:1],2,8,1>4[8:1],4v7[8:1],1,6,
8bpp1[32:9],,2,,4pp5[32:9],,6,,8w4[8:1],,8,,2b/6b,,1,28,
3>8[8:1]/7<4[8:1],,37,,1-5[8:1],6<4[8:3],1,6b,
,5,5h[4:1],,{16}6,4,5,,7,3,5,,
{4}8b-5[8:1]/2b,4-8[8:1]/8,4b/6b-3[8:1],6/2-6[8:1],
4b-1[8:1]/2b,4/8w4[8:1],8b,{16}2,6,4,8,
{1}2bqq7[8:5],{8},6/5h[8:1],7,,3/4h[8:1],2,,45,
{8}6bqq3[8:5]/3,3,,1,1,,7,7,7b>2[8:1],3,4,5,36,{16}4,5,2,7,{8}1b/8b,
{16},,2,4,3h[8:1],,6,5,7h[8:1],,3,5,1h[8:1],,8,2,7,3,7,4,7,5,7,6,{8}7,5/8z4[8:1]*-5[8:1],36,8b,
