&title=秘密 (VOCALOID ver)
&artist=はるまきごはん / 初音ミク
&first=0
&des=私生饭,木桶饭
&des_5=私生饭,木桶饭
&lv_5=13
&inote_5=(135){4},,,,
{8}2,
3,4,5,3,4,{4}5q4[4:3],
{8},,,,,,,,2,
3,4,5,3,4,{4}5v4[4:3],
{8},,,,,,,,2,
3,4,5,3,4,{4}5p4[16:13],
{8},,,,,,,,2,
3,4,5,3,4,{4}5qq3[8:5]*q1[8:5],
{8},,,,,,,3,
5/2>4[8:1],,,1,8/3<5[8:1],,,7,
{4}5h[4:1],{8}8,2,{4}4h[4:1],{8}5,4,
3/6>4[8:1],,,3,2/5<7[8:1],,,4,
5/8h[8:3],,,1,{4}2h[4:1],{8}5,7,
5/8>2[8:1],,,3,4/1<7[8:1],,,6,
{1}5h[8:3]/8h[2:1],
{2}4>2[4:1],7<4[4:1],
2<6[4:1],{4}4-8[8:1],1<6[8:1],
1b/7b,5/8-3[8:1],2,4/1>6[4:1],
6,8,1/2h[4:1],{8}4,3,
{4}5/6<1[8:1],2,4/3-6[8:1],7,
5/8<3[4:1],3,{8}1,{16}4,3,4,3,4,3,
2/5h[16:3],,,4,{8}6,7/5,7/8,6/1,{4}5/2,
{16}6/4h[16:3],,,5,{8}3,4/2,{16}7,8,{8}7,{4}6/1,
{16}4/3h[16:3],,,1,{8}2,8/3,1/7,7/1,6,5,
{4}3pp5[8:1]/4qq2[8:1],4/3,{8}7,8,1,2,
3/4-7[8:1],4,{4}1-5[8:1],7-4[8:1],{8}3,2h[8:1],
4-7[8:1],4,{4}1<3[16:5],7,1,
{8}2/1,{16}3,3,5,4,,5/6,,8/7,,1/8h[16:3],,,{8}3,
{16}2,1,3,5h[8:1],,6h[8:1],,7h[8:1],,1,{8}1/8,2/3,5/4,
{16}6/7h[16:3],,,1h[16:3],{32},,,,7b>5[8:7],6,{16}5qq7[16:17],{1},{4},,{16}1/2h[16:3],
,,8h[16:3],{32},,,,2bq6[4:1],3,{16}4-8[16:3],,,,,,,,,{8}7/1,
{16}3,4,{8}2h[8:1],6,7/5,6/5,4/3,2/4,
{4}1b/7b,{8}4/6,5,4/2,3,4/6,5,
4/1,2,4/7,6,5/1,3,4/8,6,
4/3,4/3,2/1,2/1,7/8,7/8,6/5,6/5,
{4}4/2,6<3[16:5]/5q4[16:5],,,3b/6b-1[8:1],
{16}5-2[8:1],,,8,{8}5,6,{4}2-5[8:1]/4-8[8:1],
{16}2/4>1[8:1],,,7,{8}4,5,1>4[8:1]/4<7[8:1],8,{4}4/1-5[8:1],
1b/5b>2[8:1]*<8[8:1],5qq7[16:5],8,{8}1-6[8:1],8,
{4}1/7-4[8:1],7/1,{8}3/5,1/2,6/5,1/8,
{4}6b/2b>5[8:1],{16}1<6[8:1],,,4,{8}1,2,{4}8q4[8:1]/6<1[8:1],
{16}6/8p4[8:1],,,3,{8}8,1,{4}4q8[8:1]/8>3[8:1],8/4,
5b>2[8:1]/6bp2[8:1],5/6,{8}7/1,7/1,6/5,3/4,
4/3,{16}2,1,4,5,{8}3h[8:1],{16}1,2,7,8,{8}6h[8:1],3,
{4}2/1<6[8:1],{16}1b/7b-4[8:1],,,5,{8}7,3,{4}1/4-7[32:3],
{8}4/3,{16}2,8,1-5[8:1],7,2,8,{4}1<6[8:1]*>4[8:1],1b,
{16}7h[8:1]/3h[8:1],,,1h[8:1]/2h[8:1],,,{8}7/8>4[4:1],{4}6,{8}7,8,
{16}5h[8:1]/1h[8:1],,,7h[8:1]/6h[8:1],,,{8}8/2,{4}3q5[8:3],{8}8-4[8:1],8,
{1}8b,
6>3[4:3],
7<2[4:3],
{32}8p1[16:9],{4},,,{16},,,{32}2/7,
{1},,,{4},{16},,,{64},,,2h[8:1],
,,,,,,,4h[8:1],,,,,,,,5h[8:1],,,,,,,,7,,,,,,,,,{4}8b/7b,
{8}1/2,3,4/5,6,8/7,1,
2/4,3/5,4/6,8/7,2/1,3/4,5/6,8/1,
3/2,3/2,3/5,5/3,8/5,8/5,6/2,2/6,
{4}8/4,2h[4:1]/6h[4:1],,7V15[24:31]/1pp5[4:5],
,,,,,,5qq3[8:1]/6pp8[8:1],
6/5,
7/4-2[8:1],{8}7-1[8:1],7,2-5[12:1],2,8-4[8:1],8,
1,{16}3,3h[16:3],,,{8}8,{16}6,6h[16:3],,,{4}1-5[8:1],
1b/2b-7[8:1],{16}2/5-1[8:1],,,1,{8}5,3,{4}1-5[8:1]/4-2[8:1],
{16}1/4<7[8:1],,,1,{8}4,3,7<4[8:1]/5-1[8:1],8,{4}5/7,
8>3[8:1]/4<7[8:1],4/8,{8}4/6,6/4,8/7,2/1,
{4}2/1-5[8:1],7/1,{8}6/4,7/8,4/3>8[8:1],2/1,
{4}3/6-2[8:1],{16}8>3[8:1],,,4,{8}8,6,{4}3>8[8:1]/8<5[8:1],
{16}3/8q4[8:1],,,4,{8}8,6,{4}5bp1[8:1]/8bp4[8:1],5b/8b>3[8:1],
8/6,3/1p5[8:1],7/1v4[8:1],{8}1/3>5[32:9],2,
{4}1/3,{8}2qq5[8:3],2,4,5,6,7,
{16}4h[8:1]/8h[8:1],,,7h[8:1]/6h[8:1],,,{8}3/5pp6[4:1],{2}1>4[8:1],
{16}5h[8:1]/4h[8:1],,,1h[8:1]/3h[8:1],,,{8}8/7p1[64:17],{2}5p1[8:1],
{16}8/7,,,2,{8}1qq5[8:3],3V15[4:1],,,,,{4}4/3,
{128}2<7[34#32:7]*<7[34#32:7],6q3[34#32:7],{16},,,{64},,,{2}4h[4:3]/5h[4:3],
{1},{4},{8},{16}4,
5,{8}3h[8:1],1,6h[8:1],5,
1b/7b,{16}2,4,{8}3,{16}6,5,{8}7-3[8:1],8,{4}7/1<6[8:1],
{16}1/5q1[8:1],,,4,{8}5,{16}2,3,{8}8/4h[8:1],6h[8:1],8h[8:1],4h[8:1],
7bq3[8:1],7,{4}5-1[8:1],3p7[8:1],{8}6,5h[8:1],
7q3[8:1],7,{4}5>7[16:5],3,5,
{8}8b/2b,{16}7,5,{8}6,{16}3,4,{8}2-6[8:1],1,{4}2/8>3[8:1],
{16}8/4p8[8:1],,,5,{8}4,{16}7,6,{8}5/1,3,4/8,6,
2b/1bp5[8:1],2,{4}3-7[8:1],5q1[8:1],{8}2,3,
8/5,7,6/4,5,3/4,4/2,7/8,7/1,
{16}2h[16:5],,,,,,,3h[64:17],{4},{16},{64},,,6h[64:15],{4},{16},,{64},5h[32:9],
{4},,{64},4h[32:15],{4},{16},,,{64},5h[192:133],
{4},,{16},,{64},,,{192},{24}3-7[24:43],
4,5,{12}6-2[3:5],
E
