&title=Apocalyptic
&artist=Z ClaxX/SumaiLight
&first=0.02
&des=Jason-100
&lv_6=13+
&inote_6=(160){1},
{1},
{2},1b,
{4}4h[4:5],5,,5,
{4},5,4-1[8:1],,
{4}8h[4:5],1,,1,
{4},1-4[4:1],,,
{4}6h[4:5],5,,5,
{4},5,5-8[8:1],,
{4}1h[4:5],8,,8,
{4},8V26[4:5]*s4[4:5],,,
{1},
{1},
{8}1h[2:1]/8b,,,2,3<1[2:1],,2,,
{4},3h[2:1],1,2,
{8}4/3h[2:1],,,4,5s1[2:1],,6h[2:1],,
{4},,1/6,2/4,
{8}3/5h[2:1],,,6,7>5[2:1],,6,,
{4}7,8,1-6[8:1],,
{8}7h[2:1]/5,,,5,4h[4:1],,3h[4:1],,
{4}2V84[8:3],,5,,
{8}8h[2:1]/1,,,7,6>8[2:1],,7,,
{4},6h[2:1],8,7,
{8}5/6h[2:1],,,5,4z8[2:1],,3h[2:1],,
{4},,8/3,7/5,
{8}6/4h[2:1],,,3,2<4[2:1],,3,,
{4}2,1,8v3[8:1],,
{8}2h[2:1]/5,,,5,6h[4:1],,7h[4:1],,
{4}8h[2:1],,
{24}1,,,8,1,8,
{16}2,7,3,6,
{8}4h[2:1],,5,5,6h[2:1],,7,,
{8}5,5,4,4,3h[2:1],,2,2,
{8}1h[2:1],,2,2,3h[2:1],,1,1,
{8}8,8,7h[2:1],,1,,
{16}8,7,8,7,
{8}1,1h[8:1],2,2h[8:1],3,3h[8:1],4,4h[8:1],
{8}5,5h[8:1],6,6h[8:1],7,7h[8:1],8,8,
{16}1,8,1,8,1,8,2,7,3,6,4,5,4,5,4,5,
{1}4,
{8}1h[1:0]/8h[1:0],,,,6h[4:1]/5b,7,8h[4:1],,
{8}5h[4:1],6,8h[4:1],7,5h[4:1],,1,,
{8}3/2h[8:1],,6h[8:1]/5,,8<2[4:3]/1,,5,5,
{8},8,8,,1p4[8:1]*-5[8:1],,1,,
{8}6h[4:3]/3,,,7,,5,5>7[2:1],,
{8}6,6,5,5,4-7[8:1]*-1[8:1],,4,,
{8}2h[2:1],3,3,,6h[2:1],,7,7,
{8},3,3,,1-3[8:1]/8-2[32:3],,1<3[16:5],,
{8}6,,,,3h[4:1]/4,2,1h[4:1],,
{8}4h[4:1],3,1h[4:1],2,4h[4:1],,8,,
{8}6/7h[8:1],,3h[8:1]/4,,1>7[4:3]/8,,4,4,
{8},1,1,,8q5[8:1]*-4[8:1],,8,,
{8}3h[4:3]/6,,,2,,4,4<2[2:1],,
{8}3,3,4,4,5v2[8:1]*v8[8:1],,5,,
{8}7h[2:1],6,6,,3h[2:1],,2,2,
{8},8,8h[4:1],,
{24}1,,,8,1,8,
{16}2,7,3,6,
{8}4h[8:3],,5,6h[8:3],,7,8h[4:1],,
{4}1<6[4:1],,4>1[4:1],,
{8}5h[8:3],,4,3h[8:3],,2,1h[4:1],,
{2}8<3[8:3],1<4[8:3],
{8}2h[8:3],,1,8h[8:3],,7,6h[4:1],,
{2}5<2[8:3],4>7[8:3],
{8}6h[4:3],,5,7,4,8,3h[4:3],,
{4}4,2,1qq7[8:1]*v6[8:1],1b>8[1:2],
{8}5,,4,4,,5,5,,
{8}6,,7,7,,2,2,,
{8}1>8[4:5],,5,5,,7,7,,
{16}1,,,,2,,2,,2h[4:1],,,,1,2,1,2,
{8}8,8h[4:1],7,7h[4:1],6,6h[4:1],5,5h[4:1],
{8}4,4h[4:1],3,3h[4:1],2,2h[4:1],1,1,
{16}8,1,8,1,8,1,7,2,6,3,5,4,5,4,5,4,
{1}5h[1:1],
{24}1b,2,3,4,5,6,7,8,1,2,3,4,
{16}5/8,,6,5,6,,6,,
{16}7,8,7,,7,,6,,6,5,6,,7-4[8:1]/4-7[8:1],,7/4,,
{16},,,,1/2,,3/8,,4/7,,6,5,6,,7,,
{16}7,8,7,,6,,6,,6,5,6,,7,8,7,,
{16}1/6,,,,1/6,,2/5,,2h[1:0]/5h[1:0],,3,4,3,,3,,
{16}2,1,2,,2,,3,,3h[1:0],4,3,,2-5[8:1]/5-2[8:1],,2/5,,
{16},,,,8/7,,6/1,,5h[1:0]/2h[1:0],,3,4,3,,2,,
{16}2,1,2,,3,,3,,3h[1:0],4,3,,2,1,2,,
{16}3h[2:1]/8h[4:1],,,,,,,,8h[1:0],,3,4,3,,3,,
{16}3,4,3,,3,,3,,3h[1:0],4,3,,3,,3,,
{16}3/4-1[8:1],,,,3,,3,,2h[1:0],,2,1,2,,2,,
{16}2,3,2,,2,,2,,2h[1:0],1,2,,2,1,2,,
{16}3/8,,,,3/8,,2,,1h[1:0]/6,,6,5,6,,6,,
{16}6,5,6,,6,,6,,6h[1:0],5,6,,6,,6,,
{16}6/5-8[8:1],,,,6,,6,,7h[1:0],,7,8,7,,7,,
{16}7,6,7,,7,,7,,7,,
{24}1,8,1,
{16}7,2,6,3,
{1}5v4[8:1],
E
