&title=Seraphim
&artist=Yooh
&first=0
&des=Dororo
&lv_5=14
&inote_5=(186)
{1}
,
{16}
3,,,,2,,,,8,,,,7,,,,
5,,,,4,,,,2,,,,1,,,,
8>6[1:1],,,,,,,,7,,,,8,,,,
2,,,,3,,,,4h[2:1],,,,,,1,8,
7,,,,,,,,5,,,,6,,,,
8,,,,1,,,,2-7[2:1],,,,,,,,
6-3[2:1],,,,,,,,1h[2:1],,,,,,,,
2,,,,
{12}
5,4,5,4z8[2:1],,,,,,,,,,,,
{16}
1pp8[2:1],,,,1/6h[4:3],,,,,,,,,,,,
7pp3[2:1],,,,7/4h[4:3],,,,,,,,,,,,
2pp6[2:1],,,,2/8h[4:3],,,,,,,,,,,,
5<3[2:1],,,,5/4h[4:3],,,,,,,,,,
{24}
5,6,7,
{16}
8qq1[2:1],,,,8/3h[4:3],,,,,,,,,,,,
2qq6[2:1],,,,2/5h[4:3],,,,,,,,,,,,
7qq3[2:1],,,,7/1h[4:3],,,,,,,,,,,,
5-1[4:1],,,,1<3[4:1],,,,4h[2:1],,,,,,
{24}
2,1,8,
{12}
7^5[8:1],,7,4,,4,8p4[8:1],,8,3,,3,
1^7[8:1],,1,3,,3,2-6[8:1],,2,4,,4,
7-5[8:1],,7,4,,4,8-4[8:1],,8,3,,3,
7-5[8:1],,7,4,,4,8,1,8,2b/7b,,,
2^4[8:1],,2,5,,5,1q5[8:1],,1,6,,6,
8^2[8:1],,8,6,,6,7-3[8:1],,7,5,,5,
2-4[8:1],,2,5,,5,1-5[8:1],,1,6,,6,
4b,,3b,,2b,,8b,,7b,,6b,,
{16}
1b,,7,6,5,,1,,7,6,5,,1,,7,6,
5,,1,,7,6,5,,2,,8,7,6,,
{24}
3,5,3,
{16}
5b,,2,1,8,,5,,2,1,8,,5,,2,1,
7b/8,,,,5b/6,,,,3b/4,,,,1b/2,,,,
8b,,2,3,4,,8,,2,3,4,,8,,2,3,
4,,8,,2,3,4,,7,,1,2,3,,
{24}
6,4,6,
{16}
4b,,7,8,1,,4,,7,8,1,,4,,7,8,
1/2b,,,,4/5b,,,,7/8b,,,,3,6,3,6,
2-4[8:1],,2,,4,,5-1[8:1],,5,,1,,2-4[8:1],,2,,
4,,5-1[8:1],,5,,1,,2^7[8:1]*-4[8:1],,,,2,,,,
6^4[8:1],,6,,4,,3p7[8:1],,3,,7,,6^4[8:1],,6,,
{12}
8b,,1b,,2b,,4b,,5b,,6b,,
{16}
7-5[8:1],,7,,5,,4-8[8:1],,4,,8,,7-5[8:1],,7,,
5,,4-8[8:1],,4,,8,,7^2[8:1]*-5[8:1],,,,7,,,,
3,4,3,4,1,8,1,8,5,6,5,6,1,8,2,7,
{12}
2b,4b,3b,7b,5b,6b,1b,5b,3b,
{24}
7b,,,8,1,8,
{16}
1-5[8:1],,,,6-1[8:1]/1,,,,2-6[8:1]/6,,,,8/2,,8^5[8:1],,
,,8^3[8:1],,,,8,,4,,5,,6,,7,,
2-6[8:1]/8,,,,7-2[8:1]/2,,,,3-7[8:1]/7,,,,1/3,,1^6[8:1],,
,,1^4[8:1],,,,1,,5,,6,,7,,8,,
4-1[8:1]/1,,,,7-4[8:1]/4,,,,2-7[8:1]/7,,,,5/2,,5^8[8:1],,
,,5^2[8:1],,,,5,,1,,8,,7,,6,,
5V74[4:1]/1,,,,,,3,,2V41[4:1],,,,,,8,,
7-4[8:1],,,,7-2[8:1],,,,7w3[8:1],,,,7,,,,
8-4[8:1]/1,,,,3-8[8:1]/8,,,,7-3[8:1]/3,,,,1/7,,1^4[8:1],,
,,1^6[8:1],,,,1,,5,,4,,3,,2,,
7-3[8:1]/1,,,,2-7[8:1]/7,,,,6-2[8:1]/2,,,,8/6,,8^3[8:1],,
,,8^5[8:1],,,,8,,4,,3,,2,,1,,
5-8[8:1]/8,,,,,,3,,3-8[8:1]/8,,,,,,4,,
4-8[8:1]/8,,,,,,2,,2-6[8:1],,2,1,2,,,,
8^5[8:1],,1,,2,,3^8[8:1],,4,,5,,6^3[8:1],,7,,
{12}
8b,,2b,,4b/3,,1b,,7b,,5b/6,,
{16}
3^8[8:1],,3,4,3,,7^4[8:1],,7,8,7,,3^8[8:1],,3,4,
3,,6-2[8:1],,,,5-3[8:1],,,,1,,8,,7,,
6^1[8:1],,6,5,6,,2^5[8:1],,2,1,2,,6^1[8:1],,6,5,
6,,3-7[8:1],,,,4-6[8:1],,,,2,,1,7,1,7,
2,3,4,5,1,8,7,6,8,1,2,3,7,6,5,4,
1,2,3,4,6,7,8,1,3,4,5,6,8,1,2,3,
5-1[8:1],,5,,7-4[8:1],,7,,2-5[8:1],,2,,4-8[8:1],,4,,
1-6[8:1],,1,,7-3[8:1],,7,,2-6[8:1],,2,,8,,8,,
{24}
5h[4:1],,,6,7,8,1h[8:1],,,4h[4:1],,,6,7,8,1h[8:1],,,
{16}
2,1,2,1,
{24}
4h[4:1],,,6,7,8,1h[8:1],,,3h[4:1],,,6,7,8,1h[8:1],,,
{16}
2,,4,3,
{24}
4h[4:1],,,3,2,1,8h[8:1],,,5h[4:1],,,3,2,1,8h[8:1],,,
{16}
7,8,7,8,
{24}
5h[4:1],,,3,2,1,8h[8:1],,,6,,,2b,,8b,,6b,,3b,,1b,,7b,,
{16}
46,,5,,78,,1,,53,,4,,21,,8,,
7,3,7,3,8,4,8,4,1,5,1,5,
{24}
26,15,84,37,26,15,
{16}
8-4[1:1]/4,,,,,,,,,,,,,,,,
3^6[2:1],,,,,,,,
{12}
7h[256:1],7h[256:1],7h[256:1],7b,,,
{16}
8qq1[2:1],,,,83,,,,4,,4,,,,2,,
2qq6[2:1],,,,25,,,,4,,4,,,,7,8,
7qq3[2:1],,,,71,,,,2,,2,,,,4,,
4>6[2:1],,,,45,,,,5,,5,,,,
{24}
4,3,2,
{16}
1pp8[2:1],,,,16,,,,5,,5,,,,7,,
7pp3[2:1],,,,74,,,,4,,4,,,,2,1,
2pp6[2:1],,,,28,,,,7,,7,,,,4,,
4^1[8:1]*^7[8:1],,,,4w8[8:1],,,,4,,,,,,
{24}
8,1,8,
{12}
2-5[8:1],,2,6-1[8:1],,6,3-6[8:1],,3,7-2[8:1],,7,
4-1[8:1],,4,8-5[8:1],,8,3-8[8:1],,3,7-4[8:1],,7,
1^4[8:1],,1,6^1[8:1],,6,3^6[8:1],,3,8^3[8:1],,8,
{24}
4b,,,,4,,35,,,2,1,8,5b,,,,5,,64,,,7,8,1,
{12}
3,4,1,6,5,8,2,4,1,7,5,8,
2,6,3,4,4,1,7,3,6,5,5,8,
{48}
1h[12:1],,,,,,,,1,2,3,4,
8h[12:1],,,,,,,,8,7,6,5,
2h[12:1],,,,,,,,2,3,4,5,
7h[12:1],,,,,,,,7,6,5,4,
{12}
1b-5[8:1],,2b,,3b,,4b-8[8:1],,5b,,6b,,
7b-3[8:1],,8b,,1b,,2b-6[8:1],,3b,,4b,,
{24}
,,,,,,,,,6,5,4,3,,,,,,,,,,,,
{16}
,,,,,,,,,,,,,,,,
,,,,,,,,,,,,,,,,
,,,,,,,,,,,,,,,,
E
