&title=Luna say maybe
&artist=月村手毬
&first=3.64
&des=Hisui
&des_5=Hisui
&seek=0.00
&wholebpm=139
&demo_seek=41.7
&demo_len=13.0
&lv_1=音
&lv_5=14
&inote_1=(139)
{4}
1,1,1,1,
1,1,1,1,1,1,1,1,
1,1,1,1,1,1,1,1,
1,1,1,1,1,1,1,1,
1,1,1,1,1,1,1,1,
1b,E,
&inote_5=(139)
{16}
4,,3h[2:1],,,,8-4[8:1],,,,8,,1,,7,8,
6h[16:3],,,4h[16:3],,,2h[16:3],,,1h[16:3],,,3h[16:3],,,5h[16:3],
,,7h[16:3],,,1h[16:3],,,8bw4[8:1],,,,,,,,
2h[16:3],,,5h[16:3],,,8h[16:3],,,4h[16:3],,,1h[16:3],,,6p2[16:3],
6^3[8:1],,,,,,,,3h[4:1],,1,,7h[4:1],,1,,
3h[16:3],,,5h[16:3],,,7h[16:3],,,1h[16:3],,,2h[4:1],,4,,
6-2[8:1],,,,5qq1[4:1],,,,8,,,7,,,6,,
5<2[4:1],,,2,,,4qq8[8:3],,,,,,,,,,
6,,7,8,7,6,5,,2h[8:1],,4h[8:1],,6h[8:1],,8h[8:1],,
1-4[8:1],,2/7,,1/8,,,,6,6,4,5-8[16:1],,3/6,,4-1[16:1],
,,7,,5h[4:1],,,,2,4,3,7,5-8[16:1],6,,4,
{8}
,2,2-5[8:1]*-6[8:1],,2,,5/6,7,
8^5[8:1],7,4^1[8:1],3,6h[4:1],,5,4h[8:1]/7,
{16}
5-8[8:1],,3/6,,4/5,,,,2,2,4,3,7,7,5-8[16:1],6,
,,2,,3,,4,4,7,3,6,2,5^8[8:1],5,1,5,
{8}
,,3-7[8:1]*-8[8:1],,3,,7/8,6,
{16}
5h[8:1],,1,,2h[8:1]/6,,7,,3,3,8h[8:1],,4,7,3,6,
2-4[16:1],5,2,,,,6,5,7^2[8:1],,4,,3,,4,,
{8}
5,6/8-4[8:1],1/7,2q7[8:1]/8,,2/5,5,6,
7/8,,6/7,5/6,4/5,3/4,2/3,1-4[8:1]/2,
{16}
,,1/8,,6,5/7,,3,2/4,4,3,,1s5[2:1]/5,,3/7,,
{4}
5,6,7-3[8:1],7b,
{8}
6h[4:1]/8,2,4-8[8:1],,3/4,3h[4:1],1,7,
4/5-1[8:1],6,5/7,6,4-8[8:1]/5,3,2/4,3,
{16}
4h[4:1]/5,,7,,1-5[8:1],,2,8,1,,7h[4:1],,8,,2,,
{8}
4-8[8:1]/7,3/6,4/5,6,2/5-1[8:1],3/4,4/5,3,
{16}
2,8,2h[4:1],,4,,6,4,6h[8:3],,5,,7,,1^4[8:1],,
{8}
2,6^1[8:1],7,3qq4[4:1],4,8,8,7,
{16}
6-8[16:1],5,6,5,,,2-4[16:1],1,2,1,,,7-3[16:1],8,7,8,
,,2,1,2,1,3,8,4b/7b,,5b/6b,6,2b/5b,,3b/4b,,
{8}
1/3h[4:1],7,5-1[8:1],,5/6,6h[4:1],8,2,
4-8[8:1]/5,3,2/4^1[8:1],3,4/5-1[8:1],6,5^8[8:1]/7,6,
{16}
4/5,,4h[8:1],,8-4[8:1],,,3,8,,2h[4:1],,1,,7-4[8:1],,
{8}
,5-1[8:1],,2-5[8:1],,4-8[16:1],4,,
{16}
7h[8:1],,5,4/8,,,5/6,,2h[8:1],,4,1/5,,,3/4,,
7h[8:1],,5,4-1[16:5]/8,,,4h[8:3]/8,,,,,,,,,,
{24}
3b/8b,,,2,1,2,1,,,1b/6b,,,7,8,7,8,,,1/8,,,3/6,,,
{16}
,,4/5,,3/6,,2/7,,1/8,1/8,,5,4w8[4:1],5,4,5,
4b,,,,,,6<3[4:1],5,6,,,,4h[8:1],,,,
5h[4:1],,,,,,3>6[4:1],4,3,,,,5h[8:1],,,,
1h[4:1],,,,,,7<2[4:1],8,7,,,,1h[8:1],,,,
8h[4:1],,,,,,2>7[4:1],1,2,,,,8h[8:1],,,,
4h[4:1],,5,,6pp1[4:1],,7,5,6,,4,,3,,2,2,
5h[4:1],,4,,3qq8[4:1],,2,4,3,,5,,6,,7,7,
4h[16:3],,,1h[16:3],,,6^3[8:1],,,,8,,,,7,,
{24}
2,6,2,6,2,6,3,5,3,5,3,5,4,6,4,6,4,6,3,7,3,7,3,7,
{16}
2b,2b/8b,,,,,7b,1b/7b,,,,,,,,,
3b,3b/5b,,,,,6b,4b/6b,,,3,4,1b,4,3,,
{8}
6h[4:1],5-1[8:1],4,3h[8:3]/5,,4-8[8:1],5,4/6^3[8:1],
,6h[4:1],,2>7[4:1],,8,8,,
5-1[8:1],,6,6h[4:1],,5,5-1[8:1],,
2,2h[4:1],,8h[2:1],7,6,5,4-8[8:1],
{16}
,,4/7,,6,,5,,3/4,,2,5,1,6,7/8-4[8:1],,
,,3/8,,2,,1,,7/8,,7,8,6,1,5,2,
{24}
4^7[8:1],,,3,,,2h[4:1],,,,,,1,,,1/2,3/8,4/7,5/6,,,7bp4[8:5]/8bs4[8:5],,,
{1}
,
{4}
5h[4:1],1b,5h[4:1],1b,
{8}
5h[4:1],,1b,,5h[4:1],1b,1b,,
{16}
1,5,2,5,3,5,4,5,4,6,4,7,4,8,3,7,
{32}
2,,6,,1,,5,,1b,2,3,4,5,6,7,8,1h[8:1],,,,5,,1,,6,,2,,7,,3,,
{16}
8h[8:1],,4,,2b/6h[8:1],,8,6,2h[8:3],,4,,6,,8,,
{8}
3/7^4[8:1],6,3^8[8:1]/7,2,3/7,6h[8:3],7,5,
{16}
3-8[16:1],3,4,3,,,6-1[16:1],6,5,6,,,2,2,4,2,
4h[8:1],,5h[8:1],,7h[8:1],,5,5,7b,5,7b,7,5b,,5b/7b,,
4/6h[8:1],,2,,6b/8b-5[8:1],,,,1/8,,2,2,4h[8:1],,3h[4:1],,
5,,7,,1-4[8:1]/3,,7,7,1,,6h[8:1],,5,,8,8,
3h[8:1],,4,,1,,,,6,6,5,5,4,4,3b,3,
1,3,1b,3,8,3,8b,3,7,3,7b,3,6b,3,6b,3,
5-8[8:1],,,,2/5,,3,3,4-1[8:1],,6,,4/7,,6,,
1/5h[16:3],,,8h[16:3],,,3^6[8:1],,,,1,,,,2,,
3h[8:1],,4,,2/5,,7,8,6h[8:1],,5,,4/7,,2,1,
2h[8:1],,4,,1/5,,6,4,7h[8:1],,5,,4/8,,3,,
2-5[16:1],8,2,,,,1-6[16:1],3,1,,,,2,4,3,5,
4-8[16:1],6,4,,,,5-1[16:1],3,5,,2,,3,,4/5,,
6,5,6h[8:1],,2,,3,4,3h[8:1],,7,,2/6h[8:1],,1,,
{8}
5h[8:1],1-4[8:1],7,1/8-5[8:1],,3b/8,3b,,
{16}
7-4[16:1],1,7,,8,,8-3[16:1],6,8,,7,,7,5,6,4,
5-1[16:1],3,5,,,,4-8[16:1],6,4,,7,,6,,4/5,,
3,4,3h[8:1],,7,,6,5,6h[8:1],,2-6[8:1],,4/8,,2b/6b,,
{24}
,,,4/8,,,2/5,,,4/6,,,4/5,,,1-5[8:1]/8,2/7,3/6,4/5,,,1b>8[8:9]/6h[8:11],,,
{1}
,
{8}
,,,,5/7,8-4[8:1],1/2,3h[8:7]/8b<1[8:5],
{1}
,
{16}
4/7,6,,2/5,
{24}
3,5,3,6,4,6,2,5,3,7,4,6,
{16}
2,1,8,7b,
{1}
,
,
E
