&title=Disorder
&artist=HyuN
&first=0.83
&des=ToreHue
&lv_5=14
&inote_1=
&inote_5=(193){8}2,5,3,6,4,,,,7,1,6,2,5,,,,3,8,2,7,1,,,,5,3,6,2,7,,,,
{8}2,2,4,3,5,,,,6,6,4,5,3,,,,3,1,2,8,1p4-8-5[4:7]*q6-2-5[4:7],,,,{2},,,,
{8}8b-3[8:1]/4b,,5,5,4-8[8:1],7-4[8:1],4,7,1>4[8:1],5,6,7,5-1[8:1],1-3-5[8:1],,,
{16}6h[4:1],,7,8,1,2,3,4,6,7,8,1,2,3,4,5,8,7,8,7,1,6,1,6,2,4,2,4,3,5,3,5,
{8}4b-8[8:1]/6b,,7,7,1-5[8:1],6-1[8:1],1,6,4>1[8:1],8,7,6,8-3[8:1],4-7[8:1],8,4,
{16}2h[4:1],,3,4,5,6,7,8,2,3,4,5,6,7,8,1,4,3,4,3,5,2,5,2,6,7,8,1,4,3,2,1,
{8}8-4[8:1],5,8,7-3[8:1],3,7,2-5[8:1],7,2,6-1[8:1],4,6,2-6[8:1],8-4[8:1],2,8,
3-8[8:1],5,3,7-3[8:1],2,7,1-5[8:1],4,1,7-4[8:1],3,7,2-6[8:1]b,8-4[8:1]b,2,8,
{16}2,,5,,3,,6,,7,,2,1,,1,2,,{8}3>8[8:1],4,5,6,7<4[8:1],8,1,2,
{16}3,,5,4,,4,5,,2,,8,1,,1,8,,3,4,3,4,2,5,2,5,8,1,2,3,5,6,7,8,
{8}1b-6[8:1]/5b-2[8:1],,,,{16}7,,1,8,,8,1,,{8}2>5[8:1],6,7,8,1<6[8:1],5,4,3,
{16}2,,8,1,,1,8,,7,,5,6,,6,5,,7,,1,8,2,4,3,5,8,1,2,3,5,6,7,8,
1b-7-4[8:1]/5b-3-8[8:1],,,,,,,,2,5,3,7,1,6,2,4,
{8}3-8[8:1]/7-4[8:1],3/7,,,2-5[8:1],6-1[8:1],2,6,
{16}3,,5,4,6,4,5,,2,,8,1,7,1,8,,2,,4,3,5,6,7,8,2x,1,2,1,3,8,3,8,
{8}4b-8[8:1],7-5[8:1],4,7,{16}1,4,1,4,2,5,2,5,3,,6,5,7,5,6,,1,,4,3,5,3,4,,
2hx[8:3],,3,4,5,6,7,,1hx[8:3],,2,3,4,5,6,,8b,7,8,7,1,6,1,6,{16}2b,3,4,5,6,7,8,1,
{8}2b-5[8:1],5,2,7-4[8:1],4,7,3-8[8:1],7,3,6-1[8:1],4,6,3-8[8:1],7-4[8:1],3,7,
1-5[8:1],5,1,7-3[8:1],3,7,2-6[8:1],6,2,8-4[8:1],4,8,1-5[8:1],5-1[8:1]b,1b,,
4<7[8:1],3,2,1>4[8:1],8,7,5<8[8:1],4,3,2>5[8:1],1,8,7-3[8:1],3-6[8:1]b,7,,
1bq5[8:1],8,7,6q2[8:1],5,4,3q7[8:1],2,1,8q4[8:1],7,6,5<1[8:1],1>5[8:1]b,5b,,
8x,8-4[8:1],8,8x/6x,6-2[8:1],6,6x/3x,3-7[8:1],3,3x/5x,5-1[8:1],5,5/2,3,8/4,7,
6x,6-1[8:1],6,6x/4x,4-8[8:1],4,4x/7x,7-3[8:1],7,7x/2x,2-5[8:1],2,2/6,7,4/8,3,
{16}2b,1,2,1,2,,7b,8,7,8,7,,6b,5,6,5,6,,3b,4,3,4,3,,2bx,1,3,8,4,7,5,6,
8b,7,1,7,8,,6b,5,6,4,6,,3b,8,2,5,4,6,3,5,1,3hx[16:10],7hx[16:9],,,,,,,,,,
{1}Cf/B7/B3/6x-2-4-8[4:13]`2x-6-8-4[4:13]b,,,,
{4}3q7-1q5[2:3],,,,6h[192:1],,,,4q8-2p6[2:3]b,,,,3hb[192:1],,,,
{1}1bx-3-5-8-2[2:7]`5x-7-1-4-6[2:7]b,,,,
{2}4-1<8-5[2:7],,6h[192:1],,2h[192:1],,4bh[192:1],,
{1}1s5[4:1],3-8[4:1]/7-4[4:1],1x-5[4:1]b*>5[4:7]*<5[4:7],,{4},,3bhx[4:1],7bhx[4:1],
{32}4bx,5,6,7,8,1,2,3,4,5,6,7,8,1,2,3,4,5,6,7,8,1,2,3,4,5,6,7,8,1,2,3,
{16}4x,,6,5,7,,8,,2,4,2,4,3,5,3,5,4,,6,5,7,5,6,,3,,1,2,8,2,1,,
2,3,4,5,6,7,8,1,2/6,5,4,3,2,1,8,7,
{8}2b-5[8:1]/6b-1[8:1],,,,{16}4,8,4,8,3,7,3,7,2,,8,1,7,5,6,4,5,,3,4,2,8,1,7,
5,6,4,7,3,8,2,1,3,4,3,4,2,5,2,5,1x,2,3,4,5,6,7,8,
{32}6bx,5,4,3,2,1,8,7,6,5,4,3,2,1,8,7,
{2}2bx-8-4[8:1]b/6bx-8-4[8:1]b,{16}1b,6b,2b,5b,3b,7b,1b,,
{16}2hbx[16:2]/E7/B6,,,8bhx[16:2]/B3/E4,,,2bhx[16:1]/B5/E6,,1-5[8:1],2,3,4,1b,,,,
2,,4,3,5,4,6,,8,,7,1,8,2,1,,2,4,3,5,4,6,5,7,1x,2,3,4,6x,7,8,1,
{16}2bx-8-6[8:1]/6bx-4-2[8:1],,,,,,,,1,5,3,7,2,6,1,7,2-6[8:1],,8-4[8:1],,2,,8,,1,2,3,4,5/6,7,8,1,3bhx[4:1],,4,5,6,7,8,,2bhx[4:1],,3,4,5,6,7,,
2b,1,2,1,3,8,3,8,{32}4bw8[8:1],5,6,7,8,1,2,3,4b,,,,,,,,
{8}2b-5[8:1]/6,,7,7,3-1[8:1],8-4[8:1],3,8,2>5[8:1],6,7,8,1-5[8:1],4-2[8:1],1,4,
{16}6h[4:1],,8,1,2,3,4,5,7,8,1,2,3,4,5,6,8,7,8,7,1,6,1,6,2,3,4,5,2/6,7,8,1,
{8}2b/6b-1[8:1],,3,3,4-8[8:1],7-5[8:1],4,7,1>4[8:1],6,7,8,5-1[8:1],8-6[8:1],5,8,
{16}2h[4:1],,4,5,6,7,8,1,3,4,5,6,7,8,1,2,4,3,4,3,5,2,5,2,6,7,8,1,4,3,2,1,
{8}8-4[8:1],5,8,6-1[8:1],2,6,3-8[8:1],7,3,6-1[8:1],2,6,4-6-8[8:1],8-2-4[8:1]b,4,,
7b,7-4[8:1]b,7,7/3b,3-8[8:1]b,3,3/6b,6-1[8:1]b,6,6/2b,2-5[8:1]b,
2,2/7-3[8:1]b,7,1,1hbx[8:3],,,E1/E2/B1/Cf/B5/B4/B6/B2/B8/E5/E6/A5/B3/B7,,,,
,,,,E7,E6,E4,E3,
,E
