&title=Judgement
&artist=Tatsunoshin
&first=1.23
&des=Zy*KAL
&lv_5=14+
&inote_5=(200)
{8}
3,4,3,2/5,6,5,7,7,4,8,8,3h[2:1],E2,E3,E4,E5,2,2,8,1h[4:1]/7,,6,5,6,3,5,2,4,
{24}
E2,B1,B8,
{8}
E8,B3/E4,B6/E6,D2,D1,D8,2,4,3,7,5,6,2,7,1h[8:3],8,8,7,6,2/5,3,4,7,6,5,2,3,4,3/5,4,5,4/6,5,6-2b[8:5],7,,,,,,,,,
{8}
8x,8x<5[8:1],,2,2-6[8:1],,7,7-3[8:1],,1,1s5[8:3]*z5[8:3],,1b,,,,2x/8x,2xh[8:1]/8xh[8:1],,1/6,1h[8:1]/6h[8:1],,3/7,3h[8:1]/7h[8:1],,1/5,1-5b[8:1]/5h[4:1],,A1f,,,,7bV13[4:1],,3V17b[4:1],,5,,
{16}
5,4,3,2,
{8}
1h[8:1]/7,6,2/5h[8:1],3,4/8-4[8:1],,2>6[4:1]/8,,2x/6x>2b[4:1],,7,,8h[4:1],,
{16}
1,7,1,7,
{6}
1bxh[12:1],2bh[12:1]/4bh[12:1],5bh[12:1]/6bh[12:1],7bxh[12:1]/8bxh[12:1],1bh[12:1]/6bh[12:1],2bh[12:1]/5bh[12:1],
{4}
3x>6[4:5]/4x,4,4,4,5,5,5,5,
{8}
4/5,4,6,6,3,3,5,5,2,2,8,8,1,1,7,7,
{16}
8,6,8,6,1,5,1,5,2,4,2,4,3,5,3,5,2,1,2,1,3,5,3,5,1,7,1,7,5,6,5,6,4,3,2,1,7,6,5,4,2,1,8,7,6,5,4,3,2h[2:1]/6h[8:3],,,,,,,,,,,,,,,,
{8}3bh[4:1]/5b,,5,3,3/5,3,5,4h[8:1],6,4h[8:1],6,4h[8:1],
{16}
6,,4,4,7,,5,,
{8}
8h[4:1],,2,8,2/8,8,2>5-1<6[4:3],,7h[4:3],,,,,,,,
{4}
4bxh[8:1]/5bxh[8:1],4h[8:1]/3h[8:1],5h[8:1]/4h[8:1],6h[8:1]/5h[8:1],7h[8:1]/4h[8:1],6h[8:1]/3h[8:1],5h[8:1]/2h[8:1],{8}52,63,
{4}7b-5[8:1]/4bh[8:1],4h[8:1],3h[8:1]/4-8[8:1],3h[8:1],1-5[8:1]/2h[8:1],2h[8:1],2-7[8:1]/6-3[8:1],2b/6b,
{8}
1bxh[8:1],,1h[8:1],E8,1h[8:1]/B7,B6,1,5,5bxh[8:1],B3,5h[8:1],A2,5/E2,E1,6x-2[8:1]/A8,,6b-4v1>3b[2:1]/7bh[1:1],,,,,,,,4h[2:1],,,,
{16}
8,7,6,5,2,1,2,1,
{8}
2b-4[8:1],,1-5[8:1]/2,8,1/7,6-8[8:1],,4-2[8:1]/6,,1/4,,7-4[8:1],1-4[8:1],7,1,7,8bv5[8:1],,8v3[8:1]/2,1,8/6,7<4[8:1],,3>8[8:1]/7,,3/7,,6,5/6,3/4,1/2,{24}2,3,4,
{8}
5b/7b,,7-3[8:1],1>4[8:1],7,1,6,5/7,1b-3b[8:1]*v6b[8:1]/8b,,1v4[8:1]*-7[8:1],,1,,6,3/5,2b/4b,2/4,5/7,5/7,
{16}
4,6,4,6,3,7,2,8,
{4}
A1f,D4/E4f,A6f/E6/E7,1-5[8:1],
{16}
1b,,8,2,,2,8,,
1,7,2,6,3,5,4,6,2,8,2,8,3,7,4,6,1>4[8:1],,,1<6[8:1],,,1,,5v2[8:1],,,5,,,7-3[8:1],,,,1>7b[4:1]/7,,,,1,,,,8,,8,1,2,3,7,8,1,2,6,7,8,1,2bx-6[8:1]/5bx,,4,,2>5[8:1]/6,,7,,2/8,,8,7,6,5,4,3,2b/8b-4[8:1],,7,,1-5[8:1]/8,,2,,1/8,,8,7,6,5,4,3,2b/6b,,4bh[4:1]/8b,,,,8b,,2b/6bh[4:1],,,,1b,,3b/7bh[4:1],,,,4b,,2bh[4:1]/6b,,,,4,5,6,7,1,2,3,4,7b-3[8:1],,,,1/7,,2,,8,2,8,2,7,3,7,3,6bh[4:1],,,,4,,3/5,,1,7,4,6,2,8,2,8,3b-7[8:1],,,,3/6,,5<1[4:1],,,,1>1b[2:1],,,,Cf,,,,,,3,,3,,5,6,7,8,1/5,2/6,3/7,4/8,1b-5[8:1]/5b,,,,1/3,,2,2,7<4[8:1],,1-5[8:1],,7,,1,,8b-4[8:1],,,,3/8,,2,2,7-4[8:1],,1v6[8:1],,7,,1,,
{12}
8bh[6:1],,7bh[6:1],,6,6,5bh[6:1],,4bh[6:1],,3,3,2bxh[8:5],,,,,,6h[8:1],,,
{24}
2x/6x,1/5,
8/4,7/3,2/6,1/5,
{1}
8bV24v1>5b[4:11]/4bV68v5<1[4:11],,,,8<1[4:11],,
{4}
E4,E5,E6,E7,
{2}
E8,,1h[2:3]/E8,E7,E6,4h[2:1],
{4}
2,2,5,5,3h[4:3],,,
{8}
6,4,
{2}
Ch[4:15],E3,E2,E1,
{4}
D8,D1,D2,D3,D4f,,,,
{8}
2bx/6bxh[8:3],3,4,5bh[8:3],7,8,1bh[8:3],4,3,2bh[4:1],8,7,
{16}
6b,2,6,2,5b,1,5,1,
{8}
4bh[4:1],1,2,5bh[4:1],2,3,6bh[4:1],3,4,7bh[4:1],4,5,
{16}3b,7,2,6,1b,5,8,4,
{8}
7bx>2[8:1],7,4<7[8:1],4,1>4[8:1],1,6<1[8:1],6,4x,4,3/5,3/5,
{16}
2,4,2,4,3,5,3,5,
{8}
4b,6,5/7,8,3/4,2,5/6,7,
{16}
2,4,3,4,1,8,1,8,
{16}
1,2,3,4,6,7,8,1,3b,,2,2,2,2,2,2,2,2,2,2,2,2,2,2,3,1,4,8,5,7,5,7,4,6,4,6,3,5,3,5,2,3,4,5,1,2,3,4,8,1,2,3,7,8,1,2,
{4}
3xh[2:1]/7xh[4:1],,,Cf,
{16}
1b,,6,5,,3,4,,2-4[8:1],,1-5[8:1],,2,,1>4[8:1],,,,1<6[8:1]/7,,,,1/3,,2,,1,5,1,5,1,5,2b-6[8:1],,8,8,2,,1-5[8:1],,,,1/4,,3,,2-4[8:1],,,,2/6-8[8:1],,,,6,,1,2,3,4,5b/7b,,1b/8b,,2b/4b,,3,4,2,4,3,,6,5,6,5,7,,7-3[8:1],,,,1>4[8:1]/7,,,,1,,5-8b[8:1],,5-2b[8:1],,,,,,7-3[8:1],,1>8[2:1],,7,,1,,,,,,,,,,5h[2:1],,,,1x,,,,2,4,3,4,1b,,,,
{24}
1-3[8:1],8,1,
{16}
8-6[8:1],,1v4[8:1],,8,,1v6[8:1],,,,1/3,,2,,2-7[8:1],,,,2/6-3[8:1],,,,4h[4:1]/6,,,,7,,3/6,,2/5,,
{24}
2,3,4,
{16}
5,,8w4[8:1],,,,8b,,,,1/7,,
{6}
1bxh[12:1]/7bxh[12:1],2bh[12:1]/6bh[12:1],3bh[12:1]/5bh[12:1],4bxh[12:1]/8bxh[12:1],3bh[12:1]/7bh[12:1],2bh[12:1]/6bh[12:1],
{24}
1b/5b,,,1,2,3,4,,,1/8,,,8,7,6,5,,,3,,,2/4,,,1b/5b,,,2,3,4,5,,,1/7,,,7,6,5,4,,,
{8}
1,2/8,3/7,3/7,2/6,2/6,
{16}
1,5,1,5,
{32}
1,8,7,6,5,4,3,2,
{4}
1b/5h[4:3],,,Cf,
{8}
1x/7x,2/6,3/5h[4:1],,
{32}
1bh[2048:1],B1,
{16}
C,,7h[16:3],,,3h[8:1],,1xh[16:3],,,4h[16:3],,,8h[8:1],,
{32}
2bh[2048:1],B2,
{16}
C,,7h[16:3],,,1V35b[4:1],,1x,,5,,7,,,,
{32}
7bh[2048:1],B7,
{16}
C,,2h[16:3],,,4,,3/5,,,7h[16:3],,,1,,2,8,2,8,4,6,3,5,D2/E2f,,,,,,,,
{32}
7bh[2048:1],B7,
{16}
C,,
{32}
2xh[2048:1],1,
{16}
8,,
{32}
6xh[2048:1],5,
{16}
4,
{32}
1bh[2048:1],B1,
{16}
C,,
{32}
6h[2048:1],7,
{16}
8,,
{32}
2h[2048:1],3,
{16}
4,
{32}
8bh[2048:1],B8,
{16}
C,,
{32}
3h[2048:1],2,
{16}
1,,
{32}
7h[2048:1],6,
{16}
5,
{8}
1b,4/8,3/7,4/8,1/5,2/6,3/7,4/8,
{16}
5,1,5,1,4,8,3,7,2,6,1,5,
{24}
8x,7,6,5,4,3,
{16}
1/2,,7,5,6,,1/8,,2,4,3,,8,,5/7,,3/4,,2,1,2,,5/6,,7,8,7,,1,,2/4,,5/6,,5/6,,3/4,,3/4,,2,8,2,8,1-5b[8:7],1,1,1,
{4}
1b,,7<4[8:1],7x,
{16}
E4,,,E3,,,E2,,,,E8,,B7,,B6,,,,4,,,,5/6h[8:3],,,,4,,2x-5[8:1],,7,7,
{4}
2b-6[8:1],2b-4[8:1]/8b-4[8:1],2b-6[8:1]/8b-6[8:1],2b/8b-4[8:1],1b-5[8:1]/8b,1b/7b<4[8:1],2b-6[8:1]/7b,
{8}
2b,7b,
{16}
8b,,3,4,3,,1b,,6,5,6,,8,,1/7,,2b/6b,,3,5,4,,3b/7b,,6,4,5,,
{8}
1b-3[8:1],2b/8b-6[8:1],1b-5[8:1],8-4[8:1],1,8>3[8:1],,6/8<5[8:1],,2/8,
{16}
1,2,3,4,8,7,6,5,2,4,3,4,1x,,,,
{24}
1b-5[8:1],8,1,
{8}
8,1/2,3,4>2[8:1],
{16}
6,6,
{8}
4,8,1/7,1/7v4[8:1],,2/7,
{16}
1,8,1,8,
{8}
2,3/4,3b/4b,7-3[8:1],5,7>2[8:1],,6/7,,5,
{12}
5bx,,4bh[12:1]/6bh[12:1],,3,5,3bh[12:1],,1bh[12:1]/2bh[12:1],,3bh[12:1]/8bh[12:1],,
{24}
4b/7b,,,7,6,5,4,,,2b/8b,,,2,3,4,5,,,7,,,6/8,,,1b/5b,,,1,2,3,4/5,,,2b/8b,,,8,7,6,5/4,,,
{8}
1,2/8,3b/4b,1,5b/6b,8,
{16}
1b,7,3,5,4b,6,1x,,,,
{16}
2v7>6b[8:5],4,
{8}
3h[2:1],2,,,,,
{8}
Cf/B2,B3,B4,B6,B7,B8,E2,E3,E4,E6,E7,E8,3,4,5,6,7h[4:1],5,4,6h[4:1],4,3,5h[4:1],3,2,4h[4:1],2,1,8h[8:3],E4,E3,E2f/D2,
