&title=Happiness World
&artist= BABACORN(宝鐘マリン/白上フブキ)
&first=0
&des=うすしお
&lv_4=9+
&inote_4=(150){4},,,,4,4,4,4,4,4,4,4,36,36,36,36,36,36,36,36,
{8}4x/5x,4x/5x,,,1h[16:3]/7h[8:3],,,,5x/4x,5x/4x,,,8h[16:3]/2h[8:3],,,,
4x/5x,4x/5x,,,2h[16:3]/7h[8:3],,,,{4}1x,2x,3x,4x>6[1:1],
,,,,,,{8},1x/8x,1x/8x,,2,2,5,,3-8[4:1],,,,7-4[4:1],,,,,1,1,,
7,7,4,,6-1[4:1],,,,2-5[4:1],,,,,8,8,,
1h[8:1]/2h[8:1],,3h[8:1]/4h[8:1],,5h[8:1]/6h[8:1],,7h[8:1]/8h[8:1],,
{16}1x/2x,,,1x/2x,,,1x/2x,,,,3x/8x,,3x/8x,,,,
{4},2,8,17,2,12,7,78,2h[4:1],4h[4:1],5h[4:1],7,
7x-3[8:1]/8x-4[8:1],,2x-6[8:1]/1x-5[8:1],,
,7,1,82,7,87,2,21,7h[4:1],5h[4:1],4h[4:1],2,{8}1x/8x,1x/8x,1x/8x,,{4},17,
2>4[4:1],,,5,6<8[4:1],,,4,3>8[4:1],,,7,1,B1,C,E5/E6,
{8}4x/5x,4xh[8:1]/5xh[8:1],,3x/6x,3xh[8:1]/6xh[8:1],,,,
1x/8x,1xh[8:1]/8xh[8:1],,2x/7x,2xh[8:1]/7xh[8:1],,,,
{4}2h[4:1],3h[4:1],4h[4:1],5-8[2:1],,,,,B1,B3/E3,B4/B5/E5,,4x-1[4:1]/5x-8[4:1],,,27,
56,17,43,82,56,17,43,82,56,78,12,34,56,56,2b/7b,2b/7b,
45,17,45,28,45,17,45,28,,1b/6b,,3b/8b,
{16}2x/7x,,,2xh[16:3]/7xh[16:3],,,,,{4}1x>4[4:1]/8x<5[4:1],,
,82,56,17,43,82,56,17,43,21,87,65,43,43,7b/2b,7b/2b,
46,18,35,18,46,18,35,18,,37,,{8}26,2x/6x,,3x/5x,,4x,4x-8[8:1],,,,
{4}6,6,5h[4:1]/7h[4:1],,3,3,4h[4:1]/2h[4:1],,,26,,37,
{16}4x/6x,,,4xh[16:3]/6xh[16:3],,,,,5x/3x,,,5xh[16:3]/3xh[16:3],,,,,
4x/6x,,,4xh[16:3]/6xh[16:3],,,,,{4},2b/7b,
{8}3,3,6,6,4-1[4:1],,,,8-5[4:1],,,,,2,2,,
7,7,4,4,6-1[4:1],,,,2-5[4:1],,,,,8,8,,
2,2,5,5,3-8[4:1],,,,7-4[4:1],,,,,1,1,,
8h[8:1]/7h[8:1],,6h[8:1]/5h[8:1],,4h[8:1]/3h[8:1],,2h[8:1]/1h[8:1],,
{16}8x/7x,,,8x/7x,,,8x/7x,,,,6x/1x,,6x/1x,,,,
4x/3x,,,4xh[16:3]/3xh[16:3],,,,,5x/6x,,,5xh[16:3]/6xh[16:3],,,,,
4x/3x,,,4xh[16:3]/3xh[16:3],,,,,{4},2b/7b,
