&title=Double Agent
&artist=WAV.AV
&first=0
&des=阿抹AIMO
&wholebpm=160
&first_4=
&first_5=0
&lv_5=11
&lv_6=13
&inote_4=
&inote_5=
&inote_6=(160)
{1},
{16}5h[8:1],,4,5,
{8}2<7[8:1],3,4,5,6>3[8:1],7,8,1,
{8}2h[8:3],4,5,6,7h[8:3],2,3,4,
{24}56,,,6,5,6,5,6,5,6,5,6,
{8}4h[8:3],7,8,1,1h[8:3]/2,3,4,5,8h[64:1]/5h[64:1],7h[64:1]/4h[64:1],6h[64:1]/3h[64:1],5h[64:1]/2h[64:1],
{16}1,3,1,3,2,4,2,4,3,5,3,5,4,3,2,1,7,8,1,2,8,1,2,3,1,8,7,6,8,7,6,5,
{16}4h[16:3]/7,,,6,5h[16:3],,,7,8h[16:3],,,4,3h[16:3],,,1,2h[16:4],,,,
{8}1,2,{64}3,7,{32},{16},{64}8,4,{32},{16},{64}1,5,{32},{16},2b/6b,,
{8}15,{16}1,5,1,,{8}2-5[8:2],,7,7,7,
{8}48,{16}8,4,8,,{8}7-4[8:2],,2,2,2,
{8}15,{16}1,5,1,,{8}2-5[8:2],,7,7,7,
{8}4h[4:1]/8b-4[8:1],,,2bz6[16:3],,,,,
{8}7-3[8:1],,6,5-1[8:1],,4,3-7[8:1],,
{8}2-6[8:1],,1,8-4[8:1],,7,6-1[8:1],,
{8}65,{16}2,3,4h[8:1],,8,7,6h[2:1],,
{8}3h[64:1],2h[64:1],1h[64:1],{16}8,6,8,6,1,7,1,7,2-6[8:1],,,,8b,,,,
{16}4/5h[16:3],,,4,5,4,3,2,{8}1h[2:1]/7h[4:1],,,{16}7,6,5h[8:3],,,,2,,2,1,8h[4:1]/6,,,,6h[4:1],,,,
{4}4>1[8:1],4pp7[2:1]/6,{8}8,1,2,1,{2}8q3[8:3]*p5[8:3],{4},
{16}6h[4:1],,,,2h[16:3],,,4,2,6,3,8,{8}1h[64:1],6h[64:1]/2h[64:1],7h[64:1]/3h[64:1],6h[64:1]/4h[64:1],
{16}4,6,4,6,2,4,2,4,1,,17,26,35,,46,,2,4,2,4,
{8}1>5[4:1],,5,6,7,8,{16}15,48,37,26,1/5h[8:1],,8,8,7,,1,1,2,,
{16}8,,7h[2:1],,8,1,2,3,4,5,6h[2:1],,,,,,1,8,7h[2:1],,6,5,4,3,2,1,8h[2:1],,,,,,
{16}5,6,7h[2:1],,,,,,1,2,3h[2:1],,,,,,7,6,5h[2:1],,,,,1,2,3,4h[4:1],,,,,,
{16}64,7,8h[4:1],,,,,,74,63,5/2h[8:3],,3h[64:1],,1h[64:1],,7h[64:1],,
{16}5/2b,5/2,,4/7b,7/4,,8b/1b,,7b-4[8:1]/2b-5[8:1],,,,{4},
{8}35,2,{16}3,6,5,7,4,6,8,7,16,,78,,
{16}2h[8:1]/4h[8:1],,,5h[8:1]/7h[8:1],,,18,,{24}1,8,1,8,1,8,{4}2b/7b,
{16}8h[8:1],,5,7,4,,3,4,2,2,4,2,5,,5,4,3/6b-2[16:10],,,,,,1,,2,,,,1,,,,
{16}1h[8:1],,4,2,5,,6,5,7,7,5,7,4,,4,4,5h[8:1],,,,54,,2,1,2,,7,8,7,8,8,8,
{16}6h[8:1],,5,6,3h[8:1],,4,3,7h[8:1],,5,7,1h[8:1],,4,2,
{16}8,7,3,4,7,6,4,5,7,6,1,2,6,5,2,3,
{16}6,2,1,2,5,3,4,3,6,2h[64:1],8,1,7,3h[64:1],5,1,
{16}2b/8b,,,35,,,6b/8b,,2b/8bw4[8:1],,,,8,,,,
{16}35,,4,5,3h[64:1],,4,,35,,3,,3h[64:1]/6,,6,5,43,,4,5,6/3h[64:1],,5,,6/3,,72,,
{16}1/8h[64:1],7,6h[64:1],5,4h[64:1]/3,,3,4,5h[64:1],,5,,7,,6,,5h[64:1]/4,,3,4,
{16}25,,16,,7h[64:1],8,7,8,47,,38,,2h[64:1],1,2,1,
{16}38,,4,5,6h[64:1],,5,,64,,6,,6h[64:1]/3,,3,4,56,,5,4,3/6h[64:1],,4,,3/6,,27,,
{16}8/1h[64:1],2,3h[64:1],4,5h[64:1]/6,,6,5,4h[64:1],,4,,2,,3,,4h[64:1]/5,,8,1-5[16:3],
{16}8h[4:1],,,,,,,,48,37,26,15,8,7,6,5,48,,6,5,6,,3,4,2-5[8:1]/5,,,,28,,,,
{16}57,,7,5,7,,56,,45,,34,,1,8,2,7,3,,3,4,3,,6,5,7-4[8:1]/4,,,,71,,,,
{16}2,4,3,5,2,7,1,8,2,,13,,{32}48,7,6,5,4,3,2,1,84,,,,{16}6,5,47,,3,4,
{8}2b/5,1b/8b,4/7b,{16}2,1,38,,7,8,61,,2,1,
{8}3/8b,4b/5b,1b/6,{16}4,6,17,,5,3,28,,2,8,
{8}3/7b,1/5b,2b/6b,{16}8,1,7h[8:1],,5b,7,3,4,2,8,1bw5[8:1],,,,1b,,,,
{4}7>2[8:3]/5h[64:1],6,6,6,2<7[8:3]/4h[64:1],3,3,3,
{4}7>2[8:3]/5h[64:1],6,5,4,2<7[8:3]/4h[64:1],3,{8}4,
{16}5,5,7h[64:1],,4,4,2h[64:1],,,,{8}5,5-7[8:1],,3,3-1[8:1],,
{8}8-4[8:1],,1,1-3[8:1],,7,7-5[8:1],,78,,
{16}1,5,2,6,1h[8:1],,4,,3,,2,,28,,7,,1,,2/6h[8:3],,,,7,,5b,,,,
{8}6-4[8:1],,4,,6-4[8:1],3,46,,3-5[8:1],,5,,6,1h[64:1],6,2h[64:1],
{8}3-1[8:1],,4,5,6-8[8:1],5,4,,{16}2,1,2,1,2-5[8:1],,{8},4,7h[64:1],7h[64:1],,
{64}8-4[32:11],1,{32},{16},{8},{4},,{32}8b,17,26,35,{8},
{16}3,4,3,4,3,,45,,56,,67,,7/8,1,2,3,4/5,,
{16}5,4,3,,2,,35,,46,,3/5,,1-5[4:1],8h[16:7],1,,,,{4},
{16}48,37,26,15,{32}8,7,6,5,4,3,2,1,{4}7/8w4[8:1],{8}8b,
{16},,7-3[8:1]/4,,,,17,,,,
{16}42,,2,4,2,,43,,54,,65,,8,1,7,2,6,,6,5,6,,3,4,2-6[8:1]/5,,,,28,,,,
{16}7,5,6,4,7,2,8,1,7,8,6,{32}1,,2,3,4,5,6,7,8,1,2/6,,,,,,,,
{32}62,7,8,1,2,3,4,5,{8}6/8b,4b/5b,1b/3,4b/5b,37,,
{32}37,2,1,8,7,6,5,4,{8}3/1b,5b/4b,8b/6,5b/4b,72,,
{32}27,3,4,5,6,7,8,1,{8}2b/6,4b/8b,3b/7,5b/1b,
{16}2,8,4b,6,1,7,3,5,1b<6[8:1]*>4[8:1],,,,1b,,,,
{8}56,45,34,,{16}12,,12,38,47,,,,{8}43,54,65,,{16}87,,87,61,52,,,,
{8}56,45,34,,{16}56,,56,47,38,,,,{8}34,2,56,8,34,28,46,18,
{24}1,8,1,8,1,8,1,8,1,8,1,8,{16}2,7,3,6,2,7,3,6,
{24}4,5,4,5,4,5,4,5,4,5,4,5,{16}3,6,2,7,3,6,2,7,
{24}1,8,1,8,1,8,1,8,1,8,1,8,{16}2,7,3,6,2,7,3,6,
{24}4,5,4,5,4,5,4,5,4,5,4,5,{16}3,6,2h[8:1],,7,3,6h[8:1],,
{8}5,2,34,5,36,{16}36,25,14,,25,36,4-8[8:1]/7,,3,,45,,6h[8:1],,8,7,6,5,48,37,26,15,
{8}48,2,46,8h[8:1],{16}5,8,4,7,2,5,4,8,
{8}3>8[8:1]*<5[8:1]/7,,,,8-5[8:1],,,{16},2v5[16:23]*v5[16:23],3V15[16:19],
{1},,,,E
