&title=サラマンドラの踊り子
&artist=葉月ゆら
&first=0
&des=
&wholebpm=127
&des_6=セーラーショタ
&lv_6=13+
&inote_6=(127)
{1},
{16}
2h[16:3],,,3h[16:3],,,4,,7h[16:3],,,6h[16:3],,,5,,
2h[16:3],,,3h[16:3],,,4,,7h[16:3],,,6h[16:3],,,5,,
4<7[12:1],,,,8>3[12:1],,,,7,,,62,,,53,,{32}4,5,4h[16:7],,{16},,,,,,,,5,,46,,37,,
2b/8b,,7,5,,5,6,,17,,2,4,,4,3,,
28,,7,5,,5,6,,17,,2,4,,4,3,,
28,,6,5,,3,4,,17,,3,4,,6,5,,
47,,,14,,,47,,
{12}26,37,26,{16}37,,,,
1b/8b,,2,4,3,5,4,,5V31[32:5]/6,,,1,,,7,,4V68[32:5],,,8,,,2,,4h[16:3],,,7h[16:3],,,
8,6,8>4[8:1],,,4,,,6,,1<5[8:1],,,5,,,3,,8h[16:3],,,6h[16:3],,,2,,3,5,4,6,3,6,2,7,
1b/8,,7,5,6,4,5,,4-8[12:1]/3,,,8-6[16:1],,,3,,5-1[12:1],,,1-3[16:1],,,6,,5h[16:3],,,2h[16:3],,,
1,3,1-5[12:1],,,5-7[16:1],,,7,,2-4[12:1],,,4-8[16:1],,,8,,7,,6,,15,,2v3[12:1]/6v7[12:1],26,,,,,,18,,,
{8}3h[8:3]/5,6,7,8,1h[8:3]/5,4,3,2,1h[8:3]/4,5,6,7-3[8:1],2-8[8:1],,,,
2-6[8:1]/7-1[8:1],,7<2[16:6]/2,,1,8,7,6,1h[8:2]/5h[8:2],,,{16}2,6,37,,,,78,1,2,3,
{8}4/6h[8:3],3,2,1,8h[8:3]/4,5,6,7,8h[8:3]/5,4,3,2,1h[8:3]/4,4,5,{16}5,6,
{8}7<4[8:1]/8>3[8:1],,{16}7p6[4:1]/8,,,,72,,,2<3[16:5],,,6,,6h[16:6],,,,,,5w1[4:1],6,
5,,,,,,,,
{16}
3,4,3,,2p6[32:4]/6,,6q2[32:4]/2,,8-4[32:4],,,,,,,,
6,5,6,,7q3[32:4]/3,,3p7[32:4]/7,,1-5[32:4],,,,,,,,
2,5,3,3,6,4,7,,6v5[32:3]/2,,2v1[32:3]/6,,,,,,
7,8,6,6,1,5,2,,1w5[8:1]/3,,27,,1,,,,
2,4,2,,3-8[32:4]/7,,3-6[8:1]/7,,3-7[32:4],,,,,,,,
6,3,6,,4qq4[16:4]/5pp5[16:4],,18,,45,,,,,,
78,,16,,2-5[12:1]/5,,3,4,2,,8,,4/7-4[12:1],,6,5,7,,2,,24,,57,,18,18,,,
6,4,5,3,4,,12,,3/8-4[12:1],,1,2,8,,3,,1-5[12:1]/6,,8,7,1,,6pp5[4:1],,,,,,,,
1h[8:1],,,2h[8:1]/6h[8:1],,,37,,{12}48,26,26,37,26,26,{16}7v6[8:1]/3v2[8:1],,,,,,,,
45,,3,34,,6,65,,{12}45,3,2,18,7,6,{16}
45,,6,65,,3,3/4h[16:2],,,1,7,2,7,3,6,3,
45,,7,75,,2,4/2h[16:2],,,6,3,6,1,6,3,6,
45,,2,24,,7,75,,36,,2,2,6,3,7,2,
18,,6,75,,3,24,,,68,,13,,27,27,,
45,,3,24,,6,75,,,8,1,8,{24}2,3,4,{16}6,6,
45,,2,34,,7,65,,,24,,57,,36,36,,
18,,65,4h[16:2]/7,,8,3,1,{24}2h[24:1],,2h[24:1],,2h[24:1],,2h[24:1],,2h[24:1],,2h[24:1],,
{16}
21,,3-7[8:1],4,,,8,,1h[16:3],,,6h[16:3],,,5,,
78,,6-2[8:1],5,,,1,,8h[16:3],,,3h[16:3],,,4,,
6V48[6:1]/5,,,64,,,1,,3V51[6:1],,,35,,,8,,
4,,,24,,,47,,25,,,57,,,35,,
1/7h[16:2],,2,8h[16:2],,3,7h[16:2],,4h[16:2],,5,3h[16:2],,6,2h[16:2],,
5h[16:2],,1,6h[16:2],,2,7,,18,,57,,5p2[16:5]/3,,46,,5/7,,
,,,,8,7,3b/6,,,4/8b,,,1b/5,,
4,6,2,4,1,7,4,,5,3,7,5,8,2,5,,,34,5,6,7,18,2,3,
{12}45,36,27,{16}18,,,,
6b,,,6,,,6,,1,,,1,,,1,,
7,,,7,,,7,,3,,,3,,,3,,
5,,,5,,,5,,2,,,2,,,2,,
8,,,8,,,8,,4w8[8:1],,4,,4,,,,
{8}2b-5[8:1],2,7-4[8:1],7,1-5[8:1],1,,,6-1[8:1],6,4qq4[4:1]*pp4[4:1],4,,,,,
{16}56,,47,,2,1,2,,34,,25,,7,8,7,,
{16}1h[128:1],6,4,8h[128:1],2,5,34,,
{32}25,3,4,5,6,7,8,1,25,4,3,2,1,8,7,6,
{16}5/2b,,2,,1-6[32:4]/7,,6-3[32:4]/2,,3-8[32:4],,,,,,,,
7,1,7,,8-3[32:4]/2,,3-6[32:4]/7,,6-1[32:4],,,,,,,,
5,2,4,4,3,8,27,,4v1[32:3]/6,,8v5[32:3]/2,,4,,8,,
2,4,3,3,7,8,16,,8w4[8:1]/4,,26,,8,,,,
7,5,7,,6-2[32:4]/2,,1-6[32:4]/6,,6-3[32:4],,,,,,,,
45,36,27,,1pp1[16:4]/8qq8[16:4],,45,,18,,,,,,
34,,52,,6-1[12:1]/1,,7,3,6,,2,,8/3-8[12:1],,2,6,3,,7,,75,,24,,18,18,,,
3,5,4,6,5,,87,,6/1-5[12:1],,3,7,1,,6,,8-4[12:1]/3,,6,2,8,,3qq4[4:1],,,,,,,,
8h[8:1],,,7h[8:1]/3h[8:1],,,62,,{12}51,73,73,62,73,73,{8}26,,,,
{16}2h[16:3]/1,,,8h[16:3],,,5,,6/7h[16:3],,,1h[16:3],,,4,,
2h[16:3]/3,,,8h[16:3],,,5,,6/7h[16:3],,,3h[16:3],,,4,,
6/5-7[12:1],,,,5/2-4[12:1],,,,21,,,73,,,64,,{32}5,4,5h[16:7],,{16},,1,,2,,3,,48,,53,,62,,
71,,2,4,3,5,4,,82,,7,5,6,4,5,,
71,,3,5,2,4,3,,82,,6,4,7,5,6,,
2b,1,3,8,4,7,5,6,4b,5,3,6,2,7,18,,
{32}2,3,4,,,,7,6,5,,,,1,2,3,,
{12}45,36,27,{16}18,,,,
{32}6h[128:1],5w1[4:8],4,,,,,,,,,,,,,,,
