&title=悪ノ娘
&artist=mothy akuno
&first=3.32
&des_5=はるか★__ Kk
&lv_5=13
&des=はるか★__ Kk
&inote_5=(140)
{16}2,1,3b/8<5[8:1],,,,4>1[8:1],,,,4/6,,7h[8:1],,8,,8,,
{16}3,7,2,7,4,6,1,,8bw4[8:1],,,,
{8}8,,
{16}6b/1>4[8:1],,,,5<8[8:1],,,,5/3,,2h[8:1],,1,,
{8}2,1b/8b-4[8:1],7,1b-5[8:1]/8b,2,1b/8b-4[8:1],7,1b/8b,
{16},,5<8[8:1],,,,4,3,2,1,
{8}1b-3[8:1]*-7[8:1]
,,1bw5[8:1],,1b,,
8>4[8:1]*<4[8:1]
,,8,,4>1[8:1],5,6,7,8b-4[8:1],,
8b-2[8:1]*-6[8:1]
,,8bw4[8:1],,8b,,
1-4[8:1]*-6[8:1]
,,1b,,,,,
{8}8,7,6,1,2,3,6,7,8,1,2,2b,,,,
{8}4>1[8:1],5,64,7,8>3[8:1],7,68,5,
{8}1b-3[8:1]*-7[8:1],,1bw5[8:1],,1b,,,,
{8}2z6[4:1],,,7,8-4[8:1],,8^3[4:1],,3^6[4:1],,6^1[4:1],,1s5[8:1],,,,
{8}8<5[8:1],1,28,3,4<7[8:1],3,24,1,
{8}8b-6[8:1]*-2[8:1],,8bw4[8:1],,8b,,,,
{8}4b-2[8:1]*-6[8:1],,4bw8[8:1],,4b,,
{8}1-3[8:1]/5,3,1-6[8:1]/5,7,1-4[8:1]/5,3,1/5,,,,
{8}34,52,16,87,12,38,74,65,8z4[4:1]/1s5[4:1],,8b/1b,,,,,,
{8}4qq4[8:1]*pp4[8:1],,,,1-4<6[8:1],,,,2-7[4:1]*<4[4:1],,,,,,,,
{8}1-5[8:1],2,1,8-4[8:1],7,8,65,65,47,47,38,3/8,1b/2b,,,,
{8}3h[8:1]/4,5,2h[8:1]/1,8,7h[8:1]/8,1,6h[8:1]/5,4,1-5[8:1]/2,,
{16}1b/2,3,4,,,,,,,,,,
{8}3h[8:1],6h[8:1],3h[8:1],4h[8:1],3h[8:1],5s1[8:1]/4z8[8:1],,5b/4b,,
7<5[8:1]/2>4[8:1],,2b-7[8:1]/7b-2[8:1],,,,,
{8}34,3,35,3,37,3,38,3,31,3,32,3,3/4b,,,,
{8}4^7[8:1],3,2,1^4[8:1],8,7,6^1[8:1],5,4,
{8}3,2,1,
{16}8,7,6,5,1,2,3b,
{1},
{16},,,1,8,7h[8:1]/1,,1,,6h[8:1]/4,,4,,1h[8:1]/3,,3,,
{8}7b,8<5[4:1]/1,2,3,4,2b,2b,,8b,1>4[4:1]/8,7,6,5,7b,7b,,
{8}6h[4:1]/3,,3,65,74,82,
{4}1^4[8:1]*^6[8:1],1bw5[8:1],1b-3[8:1]*-7[8:1],1-5[8:1],1b,
{8}4^7[8:1],3,2,1^4[8:1],8,7,6,5,
{8}8b-6[8:1]*-2[8:1],,8bw4[8:1],,8b,,
{8}3,4,3,4,6,5,6,5,45,45,36,36,27,27,
{48}1b/8b,2b/7b,3b/6b,4b/5b,,,
{16},,,,2,1,3b/8<5[8:1],,,,4>1[8:1],,,,4/6,,7h[8:1],,8,,8,,
{16}3,7,2,7,4,6,1,,8bw4[8:1],,,,
{8}8,,
{16}6b/1>4[8:1],,,,5<8[8:1],,,,5/3,,2h[8:1],,1,,
{8}2,1b/8b-4[8:1],7,1b-5[8:1]/8b,2,1b/8b-4[8:1],7,1b/8b,
{16},,5<8[8:1],,,,4,3,2,1,
{8}1b-3[8:1]*-7[8:1]
,,1bw5[8:1],,1b,,
8>4[8:1]*<4[8:1]
,,8,,4>1[8:1],5,6,7,8-4[8:1],,
{4}1^4[8:1]*^6[8:1],1bw5[8:1],1b-3[8:1]*-7[8:1],1-5[8:1],1b,
E
