&title=結実のとき
&artist=Inagi
&first=0
&des=鷲見 ルベル
&lv_5=14
&inote_5=(168)
{1},,
{16},,1>4[4:1],,6,,5,,,,5p4[1:1],,7bh[8:9],,,,
{16},,,,,,,,,,,,,,,,
{16},,8<5[4:1],,2,,4,,,,4q5[1:1],,3h[8:9],,,,
{16},,,,,,,,,,,,,,,,
{16},,2>5[4:1],,8,,6,,,,6V41[2:1],,7h[8:6],,,,
{16},,,,,,,,,,,,5/1-4[16:3],,,,
{16},,,,6/5-8[16:3],,,,,,7,,,,16,,
{16},,1h[8:3]/6h[8:3],,,,,,,,25,,3>6[8:4]/4q5[8:4],,,,
{16},,,,,,,,,,4,,5,,3q5[8:4],,
{16},,,,,,,,,,,,8w4[16:17],,,,
{16},,,,,,,,,,,,,,,,
{16},,,,3b>5[8:6]/6b<4[8:6],,,,,,,,,,,,
{16},,,,,,,,36,,45,,28,,7,1,
{16}6,,7h[4:1]/4,,,,3,,25,,6,4,5,,3p6[32:5]/4,,
{16},,,,5b<4[8:4],,,,,,,,,,,,
{16},,2,,2h[4:1],,,,5,,,,1h[4:1]/7,,,,
{16}8,,37,,46,,5,,34,,6,,2,5,3,4,
{16}1,8,5,6,3-1-4-8[2:1],,,,7h[8:1],,,,7h[8:1],,,,
{16}7,,1,5,2h[8:1],,7,5,6,3,4h[8:1],,2,,5,,
{16}8,,6>1[32:6],,,,7h[4:1],,,,,,6-8-5-1[2:1],,,,
{16}2h[8:1],,,,2h[8:1],,,,2,,38,,6h[8:1]/5,,4,8,
{16}3h[8:1],,6,5,7h[8:1],,2,,4,,1s5[16:3],,,,5,,
{16},,7,,8h[4:1],,,,4,,3,,1-5[8:1],,2,,
{16}6,,7qq8[16:5],,,,5,,3,,2h[4:1],,,,1,,
{16}34,,5,,64,,7>5[16:5],,,,7h[4:1],,,,,,
{16}6<3[16:5],,,,3,,4,,5p1[8:1]*-8[8:1],,,,5,,,,
{16}27,,27,36,45,,18,,3h[4:1]/6h[4:1],,,,,,,,
{16}2pp4[4:1],,,,,,,,6pp8[4:1],,,,,,,,
{16}5>1[16:5],,,,,,,,7qq6[4:1],,,,,,,,
{16}1>5[16:5],,,,,,,,6<2[16:4],,,,,,,,
{16}3h[16:3],,,4,3,,25,,46,,7,,1,8,1,8,
{16}2-5[8:1],,,5,2,,7,,8h[8:3],,6,,4,,2,,
{16}7-4[8:1],,,1,7,,3,,2h[8:3],,1,,7,,5,,
{16}34,,25,,16,,87,,1,8,3,6,2,7,4,5,
{16}1b-5[12:1],,,,,,8h[4:1],,,,{32}5,4,3,2,1,8,7,6,5,4,3,2,
{16}1bpp1[1:1]/Cf,,,,,,,,,,,,,,,,
{16},,,,,,,,8,,8p5[8:9],,,,,,
{16},,,,,,,,,,,,,,,,
{16}1h[8:3],,,,,,,,15,,15,2,3,4,57,,
{16}8-4[8:1],,,,3h[8:1],,,,2-5[8:1]/5,,,,6h[8:1],,,,
{16}7-4[8:1]/8,,,,1h[8:1],,,,3-8[8:1]/4,,,,6h[8:1],,,,
{16}15,,24,,35,,46,,8,,71,,26,,35,,
{16}1,4,3,6,5,7,{28}2,3,4,5,6,7,8,{16}1b<4-2b[4:1],,5b>4-2b[8:1],,,,
{16},,A2f/D2/E2/E3/D3/B2/B3/A3,,,,7,,8-4[8:1],,3-8[8:1],,8,,3,,
{16}5-1[8:1],,6,2,5,,4,,3,,{28}3,2,1,8,7,,,{16}4w8b[8:1],,
{16},,4b/B4f/C/B8/A8,,,,2,,38,,4qq5[32:9],,6,,47,,
{16},,8>7[32:9],,7,,8pp1[16:3]/2,,,,,,,,5h[4:1],,
{16},,2,4,3,,7<4[8:1],,8,,,,,,3h[4:1],,
{16},,7,5,6,,2-5-3[16:3],4,1,,,6,,,7,,
{16}24,,5V31[16:3],,6,,57,,,,8-4[8:1],,7,,8>7[32:9]/6,,
{16},,83,,,,1hb[16:5],,{32}8-3b[8:1]*-5b[8:1],,2,3,4,5,6,7,A8f,,,,,,,,
{16}4b/7b,,4,3,2>4[12:1],,1,,5-1[8:1],,6,,7,,8-4[8:1],,
{16},,8,,3,,1b-5b[8:1],,5-8b[8:1],,8-4b[8:1],,6,,,,
{16}7,,7,6,5-1[8:1],,8,,1-5[8:1],,2,,4,,3V16[16:4],,
{16}2,,5,,7,,8b-4b[8:1],,4-1b[8:1],,1-5b[8:1],,3,,,,
{16}2,,2-5[8:1],4,3,5,2,,8-4[8:1],,7,,2<3b[16:5]/8,,3,,
{16}2b/5b,,,,1<2b[16:5],,,,1b/6b,,,,8<1b[16:5],,,,
{28}8b/7b`E8,E7,E6,E5,E4,E3,E2,{16}E1/D1f,,6b-2b[8:1],,2-5b[8:1],,5-1b[8:1],,3,,,,
{16}4pp8[8:3]*qq8[8:3],,,,,,,,,,,,,,18,,
{16}24,,3,,6,,57,,3h[8:1],,4h[8:1],,5h[8:1],,6,,
{16}7p2[8:1],,,,,,,,1,8,1,8,2,7,2,7,
{16}3,6,3,6,4,5,4,5,3b>5[8:6]/6b<4[8:6],,,,,,,,
{16},,,,,,,,,,,,36,,45,,28,,7,1,
{16}6,,7h[4:1]/4,,,,3,,25,,6,4,5,,3qq1[32:5]/4,,
{16},,7,6,5bpp4>6[8:7],,,,,,,,
{16},,,,,,,,,,,,4,,,,
{16}1h[4:1]/7,,,,8,,37,,46,,5,,34,,6,,
{16}2,5<4[16:5],3,4,1,5,,,,,,,1,,2,4,
{16}3,5,2,4,3,5,2-5[8:1],,,,6,,6h[8:1],,{24}7x,8,1,
{24}2,3,4,E7h[4:1],,,,,,8x,1,2,3,4,5,B6h[4:1],,,,,,7x,8,1,
{24}2,3,4,B5,,,{16}6,,7,5,7,4,7,3,7,2,7-3[8:1],1,
{16}7,8,7,,2,,{24}4x,5,6,7,8,1,E4h[4:1],,,,,,5x,6,7,
{24}8,1,2,B3h[4:1],,,,,,4x,5,6,7,8,1,B2,,,{16}3,,5,2,
{16}7,,64,,3>7[32:6],5,2,,6,,4h[4:1],,,,{24}6x,5,4,
{24}3,2,1,E7h[4:1],,,,,,5x,4,3,2,1,8,B7h[4:1],,,,,,6x,5,4,
{24}3,2,1,B8,,,{16}7,,1,,2,6,4,,35,,7b,,
{16}2bv4[32:5],,4b,,5b<3[16:4],,7,,3,,,,,,24,,
{16}1V73[32:7],,5,,6V48[32:7],,,,6,,,,1,,,,
{16}82,,73,,64,,5,,2,5,3,4,2,1,2,1,
{24}38,4,5,6,7,8,{32}1/5,4,3,2,1,8,7,6,5<4[4:28]/C,,,,,,,,,,,,,,,,
{1},,,,,,,
{24}4,3,2pp3[8:5],,,,,,,,,,,,,,,,,,,,,,
{24}5,6,7qq8[8:6],,,,,,,,,,,,,,,,,,,,,,
{24}1,2,3qq4[8:6],,,,,,,,,,,,,,,,,,,,,,
{24}8,7,6pp6[8:5],,,,,,,,,,,,,,,,,,,,,,
{16}1-4[8:6],,,,,,,,,,,,,,,,
{16}5-8[8:4],,,,,,,,,,,,,,,,
{24}84,73,62,5pp7[8:3]/1pp3[8:3],,,,,,,,,,,,,,,,,,,,,
{24}26,35,4>8[24:10]*<8[24:10],,,,,,,,,,,,,,,,,,,,,,
{24}87,16,2/5h[24:7],,,,{16},,,3,7,,4-8[8:1],,5,,2,,
{16},,3,7-4[8:1],4,,7,,,,2>6[16:3],,5,,7,,
{16}8-4[8:1],,,8,1,,3-7[8:1],,2-6[8:1],,,,,,,,
{16}6,5,4,3,6,5,4,3,8,1,2,3,4/8>3[8:1],,,,
{16}8qq1[16:4]/7,,,4,8,,2h[8:3],,,,3,,5>6[16:5],,,,
{16}57,,,,5p1[32:5],,4q8[32:5],,5,,,,,,,,
{16}2,3,4,5,2,3,4,5,8z4[32:7]/6,,,3,8,,3,,
{16}2,,5,,37,,2,8,5,6,3,4,1pp1[16:4],7,5,6,
{16}B1f,,,,,,7,6,5p8[16:3],,5,,1,,3,,
{16}5-1[8:1],,7-4[8:1],,6,,,,2pp1[16:4],,3,,8,,6<2[16:3],,
{16},,2,,,,3,,4-8[8:1],,4,,5V74[32:7],,6,,
{16}1,,2,,3,,3-8[8:1]*-7[8:1],,,,3<5[12:1],,,,6b,,
{16},,7,5,6,4,7,,2>5[8:1],,2,,6,,7,,
{16}8,,5v8[8:1],,4,,2,,1>4[8:1],,1,,5,,6,,
{16}7,,4v7[8:1],,3,,1,,8>3[8:1],,8,,7,,6,,
{16}4,6,5,8,3,4,{28}1,8,7,6,5,4,3,{16}2b>7-1b[4:1],,6b<7-1b[8:1],,,,
{16},,A1f/D2/E2/E1/D1/B1/B8/A8,,,,6,2,5-1[8:1],,3,,65,,7,,
{16}8-4[8:1],,7,3,8,,1,,2,,{28}2,3,4,5,6,,,{16}1w5b[8:1],,
{16},,B1f/C/B5/A5,,,,3,,2-5[16:2]/4,,1,5,2,,7,,
{16}46,,5<4[32:9],,24,,5qq4[16:3],,,,,,,,6h[4:1],,
{16},,2,5,3,,7-4[8:1],5,8,,,3,,,1h[4:1],,
{16},,5,3,4-8-2-5[16:5],2,5,,7,,,,,,8,,
{16}46,,2V84[16:4],,3,,24,,,,5-1[8:1],,6,,7/5>6[32:9],,
{16},,52,,,,3hb[16:5],,{32}4-1b[8:1]*-7b[8:1],,2,1,8,7,6,5,A4f,,,,,,,,
{16}28,,3,5,4,,6V84[16:3],,,,56,,3,,2,5,
{16}1h[8:1],,6,5,7h[8:1],,3,5,2-5[8:1],,6-2[8:1],,2<4[4:1],,6,,
{16}4,,,,C,,1,,2-5-1[16:4]/5,,3,,7,,8-4[8:1],,
{16},,8,,3-8[8:1],,2,,5,,6V47[16:3],,6,,,,
{16}1,,2,3,46,,7,,8p4[8:1],,4,,8>7b[16:5]/3,,2,,
{16}8b/6b,,,,1>8b[16:5],,,,1b/5b,,,,2>1b[16:5],,,,
{28}2b/4b`E3,E4,E5,E6,E7,E8,E1,{16}D2f/E2,,5,,6v1[8:1],,7,,36,,4,,
{16}5>2[8:1],,,,75,,,,1b,7,8,7,6v4b[32:5],7,5,7,
{16}4b>8b[32:7],,,,1,,,,4,,3,,2/5v3b[32:5],,4,,
{16}3b>1<7b[32:7],,,,1,,,,3,,2,,1/4v2b[32:5],,3,,
{16}2b<8-6b[32:7],,,,1,,,,2,,1,,8/3v1b[32:5],,2,,
{16}1bV75b[32:5],,,,4-1<8-5>4[16:5],,,,,,,,,,8,,
{16}2q5[32:11]/5,,,5,2,,7,,,,7,,8,,1>8[16:5],,
{16},,4h[8:3],,,,,,,,2,,35,,4,,
{16}6<1[8:1],,5,,4,,3v8[8:1],,4,,5,,6,,7,,
{16}1,,2pp5[16:6],,,,8,,6pp4[16:5],,,,6,,,,
{16}2,,3,6,4,,75,,28,,6,1,5,,34,,
{16}25,,16,,47,,38,,2,6,5,8,1,7,4,5,
{16}3<4<6-3[4:7],,,,,,,,,,,,,,,,
{16},,,,,,,,,,,,,,,,
{16}7pp5[4:13],,,,,,,,,,,,,,,,
{16},,2bqq5[32:65],,,,,,,,,,,,,,
{16},,,,,,,,,,,,,,,,
{16},,,,,,,,,,,,,,,,
