&title=とくとく…… とく…… (GAME VERSION)
&artist=佐城雪美(CV: 中澤ミナ)
&first=0
&des=Nanamor1
&clock_count=4
&lv_5=12+
&inote_5=(95)
{1},
{4}B7/B6,,B2/B3,,C,,,,
{8}4>2[4:1],,,,8<6[4:1],,,,
4xqq3[4:1],,5xpp6[4:1],,5xqq4[4:1],,5x,,
5<7[4:1],,,,1>3[4:1],,,,
4,,E6/B6,,B6/B7,,B7/E8,,
1q3[2:1],,,,5<8[4:1],,,,
5,,B7/B8/C,,B1/B2/C,,C/B7/B8/B1/B2,,
5-8[4:1],,,,1-4[4:1],,,,
7>5[2:1],,,,,,1,,
{64}E2/6h[4:1],B1,B8,,{16}E8,,,8,,,,{64}E6/2h[4:1],B5,B4,,{16}E4,,,1,,,,
{64}E2/6h[4:3],B1,B8,,{16}E8,,,7,,,,{64}E7,E6,E5,E4,{16},,,{64}E6,E5,E4,E3,{16},,,
{16}2h[4:1],,,,{64}3x,E4,B4,B5,E6,,,,{16},,6h[4:1],,,,{64}7x,E8,B8,B1,E2,,,,{16},,
2h[4:1],,,,{64}3xq5[2:1],E4,B4,B5,E6,,,,{16},,6qq5[4:1],,,,{4},
,6h[2:1]/3h[2:1],,,
3h[1:1],{64}E8,B7,,,{16},,,{64}A8,B8,,,{16},,,{64}E1,B1,,,{16},,,
{4}5h[2:1],7,4h[2:1],2,
1-4[4:1],8-5[4:1]/A1,A8,A3,
2>7[2:1]*q7[2:1],,,,
8<5[4:1],1p4[4:1],,A7,
3<6[4:1],,7p2[4:1],,
1<3[2:1],E3,E2,E1,
2/7qq4[2:1],,3qq8[2:1],,
5<2[2:1],,,3,
{8}5<2[2:1]/4,,,,5,,4q5[2:1],,
7h[8:3],,,,7-3[4:1],,4,,
2>5[4:1],,2/8,,7p3[4:1],,7/2,,
1h[8:3],,2b,8b-4[4:1],,1,2,3,
5>2[4:1],{16}6,7h[16:3],,,,,7,,,,8-4[4:3],,,,
{1},
{8},{16}3/6,,,3/6,,,4/5,,,,1b/8b,,,,
7h[4:1],,8,,1-5[4:1],,2,,3,,,,3<6[4:1],,,,
3/8,,,,7p2[4:1]b*<2[4:1],,,,7,,,,,,1,,
8<2[2:1]/2,,7/1,,8,,,,8-4[4:1],,,,8,,,,
1,,2,,3,,4-8[4:1]/2h[4:1],,,,4b,,1b>4[4:1],,,,
1,,7,,6<1[4:1],,5,,6/3pp4[4:1],,,,3,,,,
7qq4[2:1]b,,,,7/3>8[4:1],,,,3b,,,,,,,,
5,,6,,7/5>2[4:1],,4,,8<5[4:1]/5,,,,
8,,,,1>4[4:1],,4,,1/5<8[4:1],,6,,5,,,,5<4[4:3]b,,,,
{4}Cf,,,
8<3[2:1],3,{8}2,1,8,1,2/7,3/6,
4b/5b,2bh[4:1]/7bh[4:1],,,6v7[4:1]b/1p4[4:1]b,,,,,,
{16}3,,2,,8/1,,7,,{24}6,4,5,3,,,
{24}2,,2,4,,4,3,,,5h[8:2],,,{64}E4,B4,B5,E6,{16},7,,{64}E8,B8,B1,E2,{16},3/7,,
{24}7,,7,5,,5,4,,,3,,,4,,,2,,,3,5,4,6,,,
7,,7,8,,8,1-4[4:1]b,,,2,,,{4}8-5[4:1],,
{24}3,,3,4,,2,B4,,,,,,6,,6,5,,7,B5,,,,,,3,,3,4,,2,{4}B4,B1/B7,E8/B2,
{24}2,,2,4,,1,B3,,,,,,7,,7,5,,8,B6,,,,,,2,,2,4,,1,1xz5[2:1]/3xs7[2:1],,,,,,,,,,,,,,
