&title=Machina Maris Profundi
&artist=technoplanet
&first=0.009
&des=Kurage
&lv_5=14+
&inote_5=(220)
{1},,
{32}1x/8x,2x/7x,3x/6x,4x>5[32:86]/5x,{8},,,,,,,{1},4x>1b[4:3],{4},,C,,{1}5<4[4:11]/7xh[4:1],5xh[4:1],3xh[4:1],1xw5[4:2],
{8}7xh[4:1],,5,5h[4:1],,6xV48[16:7],,4,,2,,1x-3[16:3],,8x,8x,,
{8}2xh[4:1],,4,4h[4:1],,3xV51[16:7],,5,,7,,8x-6[16:3],,1x,1x,,
{8}7x,5,7h[8:1],3x,4,3xh[8:1],5,1x-5[4:1],,7x,,3xh[4:1],,5x,5x,,
{16}2xh[8:1],,4,5,6,,3xh[8:1],,5,6,7,,4xh[8:1],,6,7,8,,5xh[8:1],,7,8,1,2,3,4,5,6,7x/3xpp6[4:6],,7xbpp2b[8:11]/3xb,,
{1},,
{8}3bh[4:1]/5b,,7x,6/5h[4:1],,8,7x,1h[4:1],
{4}5,{8}7x/3x,7xh[4:1]/3x,,5,4x-8[8:1]/6x-8[8:1],,
{4},{16}A1,E1,E8,A7,A2,B2,C,B6,A3,E4,E5,A5,
{4}Ch[4:1],{16}8,7,6,5,4,3,2,1,8-4[8:1],7,6,5,
{4}4,{8}6xb<3[8:5]/2xb,2,,4x,4,,
{8}5xqq3[4:1]*pp7[4:1],,,,,4x/6x,7b/3b,,
{16}45,,3,4,3,,45,,6,5,6,,E4,E6,E3,E7,
{8}Chf[8:4],E1,,,{4}8-4[8:1],8b,
{8}E4/B4/B5/E6,,{16}2x,3x,{8}4xb/8xb,,5x-7[8:1]/6x,4,3h[8:1],
{8},2/1-3[8:1],8x,7h[8:1],{16},,D6,D7,D8,D1,D2,D3,
{4}D4,{16}3x,4,3,,6x,5,6,,4,5,4,5,
{8}3h[8:1],7h[8:1],{16}1,2,3,4,5,6,7,8,1-5[8:1],2,3,4,
{4}5,{16}A3,A4,A6,A5,E3,E4,E7,E6,D2,B2,D8,B7,
{16}1x,2x,8x,7x,2x,3x,7x,6x,3x,4,6x,5,2x,3,7x,6,
{4}Ch[4:4],,,,
{1}8xw4b[4:2],
{8}7-3[8:1],1-7[8:1],7xV53[4:1],1,,,8-5[8:1],2-6b[8:1],
{8}8,2,,{16}7,8,1,2,3,4,5x/1x,2,3,4,
{4}5-1[8:1]*-7[8:1],5x,{8}2-4[8:1]/8-4[8:1],1,,,
{16}6,5,6,,{8}4x/7x,8,2-5[8:1],1-6[8:1],2x,1,
{4}E5/B5/B4,{16}8b,7,6,5,3,4,3x,4,2h[8:1],,6h[8:1],,
{16}5,4,3,2,5x,6,7,8,2-6b[8:1],1,2,1,2x,,,,
{16}7x,5,7,5,6,,2x,4,2,4,3,,5x,4,5,4,
{16}5,,{8}3x/6x,3-1[8:1]/6-8[8:1],,3b-5[8:1]/6b-4[8:1],,3b/6b,,
{4}E7/Cf/E3,{16},,2b,4,3,5,4x,6,5,6,3x,7,
{16}1x,2x,3x,4x,1x,8x,7x,6x,2,3,4,5,8,7,6,5,
{4}C,{16}6x,5,7,4,6,3,5x,2,4,3,4,1,
{16}5,6,7,8,2x,3,4x,5,8,1,2,3,{4}8b/4b,
{8}6-4[8:1],2-6[8:1],6x,2,,8x,71,2V48[4:1],
{8},5x,7-3[8:1],,1-4[8:1]*-6[8:1]/7,,1x,,
{16}7x,5x,6x,6x,6x,,2x,4x,3x,3x,3x,4,3x,5,3,7h[16:9],
{16}3x,2,1,8,,6,5,4,3,62,51,84,{4}7x-2[8:1]/3x-6[8:1],
{1}3bV17V53z7[4:15]/7b`3?>2<1<8<7<6>5b[4:7]`Cf,,,,,,,{4},,1>8[8:31],,
{1}5-3[4:1],,,{4},,4-6[4:1],,
{1}1>8b[8:26],,Ch[4:6],,
{4}7h[4:1],5-3[4:1],{8},B6,E6,,{6}2,6h[6:1],4h[6:1],5h[6:1],3h[6:1],4h[6:1],
{4}2h[4:1],4-6[4:1],{8},B3,E4,,{4}8,2,3h[4:1]/4h[4:1],,
{4}6h[4:1]/2,4-2[4:1],{8},B5,E5,,{4}1-5[4:1],5,{8},6,64,,
{4}3h[4:1]/7,5-7[4:1],{8},B4,E5,,{4}8h[4:1]/1,Ch[4:2],,,
{8}7,,2,2,4,3h[4:1],,8h[4:1],,4-2[8:1],,7-5[8:1],,1,1,,
{8}2,,7,7,5,6h[4:1],,1h[4:1],,5<7[8:1],,2>4b[8:1],,8,8,,
{8}2,6,4,4,5,3h[4:1],,7h[4:1],,5>3b[8:1],,8<6[8:1],,2,2,,
{8}7,3,5,5,4,6h[4:1],,2h[4:1],,4-6[8:1],,1s5b[4:1],,7,7h[4:5],,
{1}3xbh[4:4],,
{16}
6h[4:1]/5b,,7,8,1,2,3h[4:1]/4,,2,1,8,7,5/6h[4:1],,7,8,
1,2,3h[4:1]/4,,2,1,8,7,64,3,2,1,8/4w8[8:1],7,6,5,
,,,,6x,5x,7x,5x,8,7,6,5,48,1,2,3,
4-8[8:1]/6-4[8:1],,,,64,,,,1x,5x,3x,4x,2,5,3,6,
{8}
1bV35[4:1],,5-2[8:1],7-3[8:1],,7,1<6[8:1],,
5,5h[8:1],{16}3,4,2,4,1,8,7,6,51,,8,,
{8}
7bV51[4:1],,3,4V62[4:1],,7,8-5[8:1]*-3[8:1],,
8b,,2bh[48:11]/6bh[48:11],,{48}E3f,B3,B4,E5,,,,,,E8f,B7,B6,E6,,,,,,B1f,C,B5,,,,
{8}8xw4[8:1],,8b,,26,7-3[8:1]/3,,1-5[8:1],,6,6,2,{16}35,6,7,8,1/5w1[8:1],2,3,4,
{4},{16}7,3,5,4,6,5,7,4,6,3,5,2,4,,15,,2,3,4,5,1,2,3,4,8,1,2,3,
{8}
8bV64[4:1],,4-7[8:1],2-6[8:1],,2,8>3[8:1],,
4-8[8:1],4,6,6,{16}1,2,3,4,1,8,7,6,
{16}
25,,3,4,3,,47,,6,5,6,,2-6[8:1],8,4,6pp4[16:10],
{1}2bV83b[16:9],
{16}
1xb/Cf,2x,3x,4x,5x,6x,7x,8x,1x,2x,3x,4x,5x,6x,7x,8x,
1x,2,3,4,8x,7,6,5,7x,6,5,4,6x,5,4,3,
{8}
1x-5[8:1],,8b,7-3[8:1]*-5[8:1],,7-1[8:1],,7,
{16}
2,3,4,8,7,6,15,,2x,4x,3x,5x,4,6,5,7,
2b,,8,7,6,5,{8}4-8[8:1]/8,,1,2-6[8:1],,7<4[8:1],7,3,3h[8:1],{16}2,1,8,7,1,2,3,4,
{16}
65,,7,4,7,,34,,2,5,2,,7-3[8:1],1,5,3,
7,,,,1x/5x,,,,{32}7xb/4b,6x,5x,,,,1xb/4b,2x,3x,,,,{48}8b,B8,Cf,B4,,,
{8}
1xw5[8:1],,,,7-3[8:1],7,2-6[8:1],2,8,8,{16}1,7,2,6,4,5,3,4,2,,5/1-5[8:1],,
{16},,,,6,7,8,1,2,3,4,5,1,2,3,4,8,1,2,3,7,8,1,2,3/4b,,4/5b,,6b/5,,3/7b,,
{8}
8b-4[8:3]/4b,,,1xh[4:1],,,5x,,{8}2>5[8:1],2,6,6h[8:1],{16}7,8,1,2,8,7,6,5,
{16}3b,4,2,4,3,,6b,5,7,5,6,,2b,8,4,6,1bw5[8:1],,,,,,,,1b,2,3/7b,6,5/2b-6b[8:1],3,8b/4,7,
{1}6bpp3b[8:25]`2bpp7[8:25]`Cf,,,,
{1}4>5[8:25],,,,4>5[8:25]/5h[4:1],7h[4:1],1h[4:1],3h[4:1],
{1}4>1<8<7<6>5[8:25]/Ch[4:1],Ch[4:1],Ch[4:1],{8},,4z8[8:3],4,,,7-3[16:1],,
