&title=未体験HORIZON
&artist=Aqours
&first=0.39
&wholebpm=178
&demo_seek=76.7
&demo_len=23.7
&lv_5=13
&des_5=Ragna
&des=Ragna
&inote_5=(137){16}27,36,
4h[2:1]/5,,,,,,5,6,{4}7h[4:1],8h[4:1],
1h[4:1],2h[4:1],3h[4:1],4h[4:1],
5qq6[4:3],,,,
4pp3[16:23]*<3[16:23],,,,
,,,,
(178){8}
3h[8:1]/4h[4:1],,,2/5h[8:3],,4h[8:1],,6h[8:3]/3,
,5h[4:1],,,7h[4:1]/4,,6,,
6h[8:1]/5h[4:1],,,7/4h[4:1],,5,,3h[8:3]/6,
,4h[4:1],,,2h[2:1]/5,,,{16}1,8,{8}
7-4[4:3],,,3,,,3,{16}3h,2h,{8}
1-5[4:3],,,6,,,6,,
6h[4:1],,5,7h[4:1],,8,61,,
4h[4:1]/5h[4:1],,,{16}45,63,{8}2-5[8:1]/7-4[8:1],,27,,
3h[4:1]/6b,,8,7h[4:1]/5,,8-4[8:1],,1h[4:1]/8,
,5,2-5[8:1]/6-1[8:1],,26,,84,,
5^8[8:1],4,3,2h[4:1],,1^4[8:1],8,7h[4:1],
,5,8-5[8:1]/4-1[8:1],,84,,26,,
3-5[8:1],3,7-1[8:1],7,2-6[8:1],2,8-4[8:1],8,
3-1[8:1],3,5-7[8:1],5,8-3[8:1]*-4[8:1],,8,,
5h[4:1]/2,,4,3h[4:1]/6,,8,1,7bqq3[2:3]/2bqq3[2:3],{4}
,,,,
,,,,
4pp6[2:1]/5,5,5,5,
7v4[2:1]/5,5,5,5,
5v2[2:1]/4,4,4,4,
1p5[2:1]/4,4,4,4,
4p8[2:1]/5,5,5,5,
1^4[2:1]/5,5,5,5,
4h[4:1]/5,{8}7,6h[4:1]/5,,8,,5h[4:1]/4,
,2,3-1[8:1]/4,,5-7[8:1]/3,,4-8[8:1]/5,,
84,,7,6,5,4,3,2-6[8:1]/6,
,7,7h[4:1],,8,6,4,5,
6h[4:1]/3,,1,7-3[8:1]/2,,2-6[8:1]/7,,7h[4:1]/2,
,8,1-5[8:1]/6-1[8:1],,16,,4,8,
3/7h[8:3],,1,1>5[4:1],,5<1[4:1],,1>5[4:1],
,5,6,7h[4:1],,8,5,4,
3h[4:1]/6,,8,2-5[8:1]/1-5[8:1],,1>8[16:13]/2,,1b/6h[8:7],
,,,,,,,,
7^4[16:9],,,,3,,,,
2^5[16:9],,4,,6,,,,
8-4[2:1],,,,2-6[2:1],,,,
5-8[4:3],,,,4,,3,,
2^5[16:9],,,,6,,,,
7^4[16:9],,5,,3,,,,
1h[4:1],,8,2^7[8:1]/7,,6<4[16:5]/2,,5b,
,6,7,8,1,2,37,,
6/4h[4:1],,5,3/4-8[8:1],,24,,7/5h[4:1],
,6,4-8[8:1],3h[2:1]/5,,,,8,
2-5[8:1],2,6-1[8:1],6,4^1[8:1],4,7,7p4[16:7],
,2,2h[2:1],,,,1,,
1h[4:1]/8h[4:1],,,8/1q5[4:1],,5q1[4:1],,1>5[4:1],
,5<1[4:1],,1,,5,6,7,
4-2[8:1]/8-6[8:1],,8bv5[8:1]/4bv1[8:1],,4b/8b,,,15,
,36,27,1b>7[8:5]/8b<2[8:5],,1b/8b,,,
,,,,{16}1,8,1,8,{8},,
2h[4:1]/6b,,4,1/5h[4:1],,4^7[8:1],,3h[4:1]/4,
,8,2-6[8:1]/1-5[8:1],,12,,7b/4b,,
8^5[8:1],1,2,3^8[8:1],,4,5,6^1[8:1],
,5,4-1[8:1]*-7[8:1],,4,,26,,
4h[4:1]/8,,5,6h[4:1]/3,,8-3[8:1],,8b/2-7[8:1],
,2b/5w1[8:1],,5b,,,73,3s7[4:1]/7,
,,8,8-3[8:1]*-4[8:1],,8,,2h[4:1]/5,
,8,75,35,12,,8-3[8:1]*-5[8:1],,
8,,1b-4[8:1]*-6[8:1],,1b,,8w4[8:1],,
8,,1bw5[8:1],,1b,,73,,
12,38,4/7h[4:1],,8,16,25,3h[4:1]/4,
,1-5[8:1],8-4[8:1],1,8,,2-5[8:1]/1-6[8:1],,
12,,8b-3[8:1]/7b-4[8:1],,7b/8b,,1z5[8:1]/2s6[8:1],,
12,,8bs4[8:1]/7bz3[8:1],,8b/7b,,25,,
18,,45,1-5[8:1]/8-4[8:1],,18,,36,
,1b/8b,2b/7b,3b/6b,,,,,
4^1[8:1]/5,,8b,,4^1[8:1]/5,,8b,,
4p7[8:1]/5,,6^1[8:1],,3p7[8:1],,5h[4:1],,
4,,1-4[8:1]/8-5[8:1],,18,,36,18,
,27,4qq4[4:1]/5pp5[4:1],,45,,,,
5^8[8:1]/4,,1b,,5^8[8:1]/4,,1b,,
5q2[8:1]/4,,3^8[8:1],,6q2[8:1],,4h[4:1],,
5,36,27,18,,35,64,2b/8b,
,,,,,,,,
,,,,{16}1,8,1,8,{8}27,,
3h[4:1]/4b,,8,6h[4:1]/5,,1-4[8:1]*-5[8:1],,1,
,63,6/3<1[4:1],,8h[2:1],,,{16}2,3,{8}
4^7[8:1]*q8[8:1],,4,,1<5[8:1],,2,2h[4:1],
,4,35,6,45,3,27,,
1^4[8:1],8,7,6^1[8:1],5,4,3^6[8:1],2,
1,8^3[8:1],7,6,5p4[4:1],,4>5[16:7],,
1b,,,,,34,25,16,
78,{16}6,5,{8}6,74,8-3[8:1]*-5[8:1]/3,,8,,
2b/6b,,34,34,45,45,65,65,
75,75,64,64,53,53,42,42,{16}
(171)1h[8:3]/5,,,,,,6,5,(164)7h[8:3],,,,,,3,4,
(158)2h[8:3],,,,,,7,5,{8}8h[2:1],,,,
(137)1,7,3,45,,45,,,
{16},1<1[16:61],{8}8b>8[4:15]*>8[4:15],,,,,,
,,,{1},,,E
