&title=HAT TRICK
&artist=P*Light
&first=-0.6
&des=YumeSSaakkii
&lv_5=14
&inote_5=(150){1},
{8}45,3,27,1,58,7,36,5,
4/1-5[8:1],2,8-4[8:1],8,7-3[8:1],7,5,,
24,1,28,7,68,5,46,3,
24,1,57,8,1-5[8:1]/2v5[8:1],38,1b/2b,,
{8}6x/4x,3,82,1x/7x,6,53,2x/4x,24,1x/6x,7,58,1x/3x,2,14,5x/8x,41,
{12}23,23,23,23,,,67,67,67,67,,,
1/8-6z2[8:4],,,,,,{8}B8,B4,1b-5[8:1],,
{8}8h[4:4],,,,,,,,
4h[4:4],,7,,,,,,
6h[4:4],,4,,3,,,,
1h[4:2],,5,,4-8[8:1],,2b/4b,,
{16}13,13,,48,,57,57,,2v1[8:1]/6v5[8:1],,,,,,,,
68,68,,15,,24,24,,3-7[8:1]/7-3[8:1],,,,,,,,
48,48,,15,,26,26,,5>2[8:1]/7-4[8:1],,,,,,,,
15,15,,26,,37,37,,2v7[8:1]/4p7[8:1],,,,,,,,
5,6,,1,,4,3,,7,5,,1,,4,2,,
8,6,,1,,5,2,,3-1[8:1]/4,,,,3-5[8:1],,5,,
6b-8[8:1]/3,,,,36,,,,1,3,,48,,,57,,
8<5[8:1],1,8,1,8b-4[8:1],,3,,8b,,,,56,,,,
3,4,,1,,5,6,,2,4,,1,,5,7,,
3,4,,8,,5,6,,2,4,,8,,5,7,,
2,4,3,4,8,6,5,6,1,4,3,5,8,6,5,7,
{32}1b,2,3,4,5,6,7,8,1,2,3,4,5,6,7,8,1b/5b,,,,,,,,{16}1,1,1,1,
1bx-4[8:1],,,,1bx-6[8:1]/2,,,,1bxw5[8:1]/8,,,,,,,,
4,3,,8,,5,6,,2,4,,8,,5,7,,
1,3,,8,,4,7,,6-8[8:1]/5,,,,6-1[8:1],,4,,
3b-1[8:1]/6b-4[8:1],,,,63,,,,8,6,,5,1,,42,,
1>4[8:1],8,1,8,1b/7x-2[8:1]*-4[8:1],,6,,7b,,,,43,,,,
5,6,,1,,4,3,,7,5,,1,,4,2,,
8,6,,1,,5,2,,3-6[8:1]/4,,,,3-1[8:1],,5,,
6b-8[8:1]/3b-5[8:1],,,,36,,,,1,3,,48,,7,5,,
8<5[8:1],1,8,1,8b/2x,,3,,{12}2-4[12:1]/4-6[12:1],24,24,{16}42,,,,
7b,8,,4h[8:1],,2,1,,8b-4[8:1],,1-3[12:1],,8,,1,
,
6,5,,1h[8:1],,3,4,,2V48[16:3],5,4,7,2b,,,,6,5,,81,,4,3,4,2,1,,67,,5,4,5,
2>5[8:1],1,2,1,2b/8xv3[8:1]*v5[8:1],,7,,8b,,,,4x/Cf,,,,
3,4,,87,,5,6,,A3,A4,,A8/A7,,A5,A6,,
2,1,,56,,8,7,,1v3[8:1]/5v7[8:1],,26,,15,,,,
4b/8b-6-8[6:1],,,2b,,,5b,,4,4,{48}8x,1,2,3,,,{16}5,5,{48}1x,8,7,6,,,
{16}2>5[8:1],5,3,7,2b/8xV24[8:2]*V64[8:2],,8,,8b,,,,,,,,
Cf,,,,,,,,,,,,C/B2/B8/B4/B6,,,,
1bx-4[8:1],,,,1bx-6[8:1]/8,,,,1bx-5[8:1]/3,,,,1bx,,,,
7,4,6,3,5,2,4h[8:1],,1,4,2,5,3,6,4,,
5bqq4[4:1]/6bx,,,6bx,,,6bx,,,,6h[16:1]/7h[16:1],,8h[16:1]/1h[16:1],,,,
3bpp4[4:1]/2bx,,,2bx,,,2bx,,,,2h[16:1]/1h[16:1],,8/7q5[16:3],,78,,,,,,1b,6,1,6,1b,6,1,6,1b,6,1,6,
1b,7,2,7,3b,7,4,7,1b,8,2,8,3b,8,4,8,1b,5,2b,5,3b,5,4b,5,6b,5,7b,5,8b,5,1b,5,
{32}2b,3,4,5,7,6,5,4,1,2,3,4,8,7,6,5,
{16}1bx,4x,2x,5x,3x,6x,4x,7x,
5xh[2:1],,,,B5,,,,6h[2:1],,,,D6,,,,
3h[2:1],,,,D4,,,,4h[2:1],,,,B4,,,,
2h[2:1],,,,D3,,,,7h[2:1],,,,B7,,,,
{32}5x,4x,3x,2x,8x,7x,6x,5x,{4}4xw8[8:1],,C,
{16}3,4,,18,,5,6,,2,4,,18,,5,7,,
3,4,,78,,5,6,,2,4,,78,,5,7,,
2,4,3,4,8,6,5,6,1,4,3,5,8,6,5,7,
{32}1b,2,3,4,5,6,7,8,1,2,3,4,5,6,7,8,1b/5b,,,,,,,,{16}1,1,1,1,
1bxv4[8:1],,,,1bxv6[8:1]/2,,,,1bxw5[8:1]/8,,,,1bx,,,,
A4,A3,,A8/A7,,A5,A6,,A2,A4,,A8/A7,,A5,A6,,
4,3,,8,,5,6,,2-6[8:1],4,1,6,2b,,,,
7b/1,82,,34,,26,15,,8b-4[8:1],,1-3[12:1],,8,,1,
,
64,57,,12,,35,46,,2V48[16:3],5,4,7,2b,,,,
61,58,,27,,4,3,4,2,1,,67,,5,4,5,
2>5[8:1],1,2,1,2b/8xv3[8:1]*v5[8:1],,8,,8b,,,,4x/Cf,,,,
35,46,,18,,57,46,,31,42,,78,,51,62,,
27,18,,45,,27,36,,1v3[8:1]/5v7[8:1],,26,,15,,,,
6b/2b-4-2[6:1],,,8b,,,5b,,6,6,{48}2x,1,8,7,,,{16}5,5,{48}1x,2,3,4,,,
{16}8<5[8:1],5,7,3,8b/2xw6b[8:1],,2,,2b,,,,,,,,
Cf,,,,,,,,,,,,
