&title=Noir
&artist=Avans
&first=0
&des=Nosgel
&lv_5=14
&inote_5=(143)
{2}
,,,,,,,,,,
{8}
1-5[4:2],,,,,,,,
2x,3,45,6,7hx[4:1],,8<5[8:1],,{24}1x,,,{8}3,4>1[8:1],5,4x,8h[8:1],7h[8:1],6h[8:1],
{24}2xv5[8:1],1x,2x,1x,,,B3/B4,,,,,,7xv4[8:1],8x,7x,8x,,,B5/B6,,,,,,{8}1xv3[8:1],2,1/8-6[8:1],6V84[4:1],8x/3x-1[8:1],,,,
2x,1,8v5[8:1],7,8x,{24},1x,2x,{8}3xh[4:3],B5,B6,B7,B8,B1,Ch[4:1],,,,
{24}B1,B2,B3,{8}B4,7x,6x,{24}B8,B7,B6,{8}B5,3x,2x,8x-6[8:1],6-2[8:1],2x-5[8:1],5w1[4:1],,,,,
1x,2,34,5,6hx[4:1],,8>3[8:1],,{24}7x,6x,5x,{8}4x,4x-8[8:1],3,4x,2h[8:1],3h[8:1],4h[8:1],
{32}8x-4[8:1],7,6,5,4-8[8:1],,,,,,,,,,,,1x-5[8:1],2,3,4,5-1[8:1],,,,,,,,,,,,{8}8x-4[8:1],7-5[8:1],8>6[8:3],7,8x,,B6,,
8x<4[4:1],,4,2,8x>4[4:1],,6,7,8x-6[12:1],8,4x-2[12:1],4,8xw4[8:1],,,,
2b/6x,8b/4xh[8:3],,,8>7[1:1],,,{16}E8,E7,E6,,,,,,,,,,,,,,,,
{8}6h[1:1],,,,B4/B3/C,,,,
3h[1:1],,B1,,B2,,B3,,
7h[1:1],,,,B1`B2`C,,,,
{16}2h[8:7],,B1/B2,,E7,B6,B5,E5,{8}Ch[16:8],,,,
8>3[16:11],,,,E7/B7/B6,,,,
4<7[16:11],,E4,E3,E2,,E1,,
{16}1x,,,,2x/E1,E8,E7,E6,E5/3x,,,,4x,,,,
5^3[8:1],,3^1[8:1],,1^7[8:1],,7<3[8:2],,Ch[4:1],,,,,,,,
7V58[4:1],,,,8pp4[8:3],,1,,2hx[16:5],,,,,,1x,8x,
7xh[8:3],,,,,,5V74[4:1],,8,,,,8x>6[16:6],,,,
,,,,,,7x,7x,7x-5[12:1],,8,,1-5[8:1]/7,,8,,
1/7-4[8:1],,6,,7/2qq5[8:2],,3,,6/2,,,,7xqq4[16:8],,,,
7,,,,,,8,1,2x,,,,3V15[4:1],,8V62[4:1],,
3x,,8x,,,,5x,4x,3xh[4:1]/1xh[4:1],,,,,,,,
E1/E5,,E8/E4,,E7/E3,,E6/E2,,E1/E5,,,,8>3[4:2]b/4<7[4:2]b,,,,
,,,,,,,,,,,,2/6x,,3/7x,,
{16}4x-1[16:1]/8,,4x/8qq5[16:22],,,,,,,1x,2x,,2xh[4:1],,,,
,,,2,3,,3,,4x,3x,2x,1xpp4[16:25],8x,,,,
8,,,8,7,,7,,,7,6,,6h[4:1],,,,
,,,6,5x,,5x,,5xh[4:1],,,,8,1,2,3,
4x/5x,,3,,4/5x,,6,,3x/4,,2,,5/6x,,7,,
4/2x,,1,,5/7x,,8,,3x/5,,1,,4/6x,,8,,
2x,4,2,4,3x,5,3,5,4x,6,4,6,5x,7,5,7,
{30}6x,7x,8x,1x,{26}2x,3x,{24}4x,{12}5x,6x,7x,8xb-6v5[16:2],{30},,,,,,,,,{26},,,
{32}1xw5[16:2],2/8,3/7,4/6,,,,,,,,,,,,,
8b-6b[12:1]/A2,E3,E4,A4,,,A1,B1,C,B5,,,,,,,
2b-4b[12:1]/A8,E8,E7,A6,,,A1,B1,C,B5,,,5xpp1[16:5],,,,
4V25[16:3],,,,,,,,,,,,,,,,
8x-4-6[16:3],7x,6x,5x,4x,3x,2x,1x,,,,,,,,,
A7/1b,A6/2,A5/3,,,,E8/2b,E7/3,E6/4h[16:2],,,,,,,,
{96}A2/7b,,E3,6,E4,,5/A4,,,,,,,,,,,,B1/8b,,C,7,B5,,6h[8:1]/5x^3[12:1],,,,,,{32},,,,,,
1bx/5x-1[192#8:1],8,7,,,,8bx,7,6,,E3,,E4,,E5,,
8<7<6>5>4[8:2],,,,,,,,1-3b[12:1],,,,,,,,1b-5[192#12:1],,,,,,7-5[8:1]/1,,,,,,,,,,
2-4b[192#8:1]/7bx-3[192#8:1],,,,,,7V51[192#12:2]/2b,,,,,,7,,,,{16}2x,3,4,5,8x>6b[16:4]*V24-6[16:4],7,6,5,
8b,,,,,,7x,,7h[16:2]/1,,,5/3h[8:1],,,2/6,,
7/8h[8:1],,,4h[8:1]/3,,,2/1,,5h[8:1]/6,,,7h[8:1]/4,,,3/8,,
{48}1hb[48:11]/2hb[48:11],,,,,,,,,,,,3b-1b[12:1]/8b,4b/7b,5b/6xb,,,,,,,,,,{32}3/5-7b[192#8:1],E3,E2,,,,5/8-4[115#16:1],E6,E7,,,,,,,,
8b/2-6[192#8:1],B8,B4,,,,2b,B2,B6,,,,7xh[16:2],,,,6xq3[16:3],5x,4x,3x,2x,1x,8x,7x,,,,,,,,,
E8,E1,E2,E3,E4,E5,E6,E7,1x,,2,,3,,4,,{24}8,D8,A7,,3,D4,A4,,7,D7,A6,,
2,D3,A3,,6,D6,A5,,1,D2,A2,,{32}8,1x,2x,3x,{24}4x,5x,6x,{16}7x,8x,1x,2x,
3x-7[12:1],,,,,,,,2bV41[4:1],,,,1x-5[8:1],,5x-8[8:1],,
8xV61b[4:1],,,,1x-5b[8:1],,5x-2-4b[4:1],,,,4x-1-5[4:1],,,,,,
7bh[1:1],,,,E5,,,,E4,,,,E3,,,,
E2,,,,E1,,,,C,,,,2<1<8<7<6b[2:1],6,3,5,
4xh[16:6],,,,,,,,3h[16:2],,1,2h[8:1],,8,1h[8:1],,
6h[8:1],,4,5h[8:1],,3,4h[8:1],,8h[8:1],,7,1h[8:1],,8-5[192#8:1],2,,
{24}8/3qq7[210#8:3],,,,3x,,{16},,,,6bh[4:1],,,,1x,5,1,5,
2x,6,2,6,3x,7,3,7,4x,3,2,1,8/4xw8b[16:6],7,6,5,
4x,,,,,,,,{48}2x,3x,4xh[12:4],,,,,,7x,6x,5xh[6:1],,,,,,,,,,,,,,
1x,2x,3xh[3:1],,,,,,8x,7x,6xh[6:1],,,,,,,,,,,,,,{8}8v2[8:1],7-5[12:1],8,7,
{16}2xh[8:1]/4xh[8:1],,,2h[8:1]/5h[8:1],,,6/2h[16:1],,5x,1,5,1,6x,2,6,2,
7x,3,7,3,8xV26-4b[2:1],4,8,4,8x,,,,1x>2>3<4<5[8:3],,,,
1b,,,,,,,,{48}8,B8,C,B4,,,,,,3,E3,E2,A1,,,,,,,,,,,,
6,E7,E8,A8,,,,,,1,B1,C,{16}B5,7x,7xh[8:1],,2V48[192#4:1],,,2/5h[16:3],,,,,
{24}7x/1h[8:1],,,,5h[24:8]/3x,,{16},,,,1b,,,,1-3[12:1],,7-5[12:1],,
1-5[8:1],,7-3[8:1],,1^4[8:1],,7^4[8:1],,1pp3[8:1],,7qq5[8:1],,1,,7,,
1xV35b[16:2]*V75b[16:2],,,,,,,,3x-8[192#8:1],,,3/8V25[6:1],,,5xV73[6:1],,
6h[16:3],,,,,,8xV61[192#4:1],,1x-5[8:1],,,,,,,,
2w6b[192#6:1],,,2b,,,,,E3,B3,B4,,E1,,E8,,
E7,,,,E6,,,,Ch[4:1],,,,,,,,
{8}6x,7,8V64-2[8:3]/1,2,3xh[4:1],,,,
2xV48-6[8:3],2,2/5h[2:1],,,,,{32}7,,8,,
7x,,E7,B6,B5,E5,,,2,,1,,2,,1,,2x,,E3,B3,B4,E5,,,7,,8,,7,,8,,
E7,E6,E5,E4,E3,E2,E1,,{8}3x,2x,1xh[4:1],,8<3[16:6],,
,,1>6[8:4],1,,,6V47[4:1],6,
7pp3[8:3],,,,6h[8:4],,,,
{24}8x,1x,2x,3xh[8:3],,,E6/B5,,,E8/B7,,,1x,8x,7x,6xh[8:3],,,B4/E4,,,B2/E2,,,
{8}2-5[8:1],3,2/8w4b[8:3],7,8,
