&title=とくとく…… とく……
&artist=佐城雪美 (CV:中澤ミナ)
&first=0
&des=『恋文海月』
&des_1=『恋文海月』
&des_2=『恋文海月』
&des_3=『恋文海月』
&des_4=『恋文海月』
&des_5=『恋文海月』
&des_6=『恋文海月』
&des_7=『恋文海月』
&lv_5=11+
&inote_5=(95)
(190){16},,,,
,,,,
,,,,
,,,,
,,,,
,,,,
,,,,
,,
(95)
{8}E7,,,,
E3,,,,
{8}E5,,,,
,,,,
{8}5h[24:5],,,,
4h[24:5],,,,
{8}3h[24:5],,B3/B6,,
E3/E7,,B3/B6,,
{8}6h[24:5],,,,
5h[24:5]/4>1[4:1],,,,
{8}4h[24:5],,B6,,
B7,,B8,,
{24}3h[8:1],,4h[8:1],,
,,,,
,,,,
4h[24:3],,5h[24:3],,
,,,,
,,,,
{24}5h[24:3],,6h[24:3],,
,,B3,,
,,,,
B2,,,,
,,B1,,
,,,,
{24}6h[24:3],,5h[24:3],,
,,,,
,,,,
5h[24:3],,4h[24:3],,
,,,,
,,,,
{24}4h[24:3],,3h[24:3],,
,,,,
,4h[64:1]/5h[64:1],,,
4h[64:1]/5h[64:1],,,,
,,,,
,,,,
{16}6bx>3[16:3],,6,,
6/7,,,,
2q7[16:3],,2,,
2/3,,,,
{16}6bxpp4[4:1],,6,,
7h[8:5]/6,,{48},,,,,,
{16},,C,,
E4,,C,,
{16}3q6[4:1],,3,,
3/6,,,,
7p5[16:3],,7,,
{48}7,,,,
,,,,
,,,,
{16}2bx/7bx,,1>4[8:1]/8q5[8:1],,
4q1>4q1b[8:3]/5<8q5<8b[8:3],,1x/8x,,
,,,,
,,,,
{16}4qq2[4:1]/5pp7[4:1],,,,
,,,,
,,,,
{24}3/6,,1/8,1/8,
,,
{16}6/5,,1/2,,
3h[2:1]/B8,,,,
B8,,,,
B8,,6p7[4:1]/3q2[4:1],,
{16}2/7,,,,
,,,,
1/8,,4>1[4:1]/5<8[4:1],,
4/5,,,,
{16},,,,
E2/E8,,,,
E3/E7,,,,
E4/E6,,,,
{24}3h[24:3],,4h[24:3],,
,,,,
,,,,
6h[24:3],,5h[24:3],,
,,8x<6pp5[2:1],,
8x,,,,
{16}8/1,,1,,
2,,2,,
{24}3,,3b,,,4,
{16}5b,,,,
{16}C,,3-6[4:1]/6>3[4:1],,
E2/B2/E8/B7,,,,
,,,,
2pp3[2:1]/7qq6[2:1],,,,
{8},,,,
{24},,B5/B3,,
,,A2/A6,,
,E3/E6,,,
{8}1v4[4:1]/8-5[4:1],,,,
{16},,,8p1[4:1],
,,,,
{8},,,5-8[16:3]*q2[16:3],
,,,,
{8}3pp4[4:1]/4>8[4:1],,,,
,,2qq1[4:1]/1-4<5[4:1],,
{8},,,,
6-2<3[2:1],,,,
{8},,Cb,,
4b/5b,,3b/6b,,
{8}1/8,5/6,1/8,3/4,
{24},,2/7,2/7,
,,4h[8:1]/5h[8:1],,
,,,{72}B6,B5,B4,
{8}B3,C,,E7,
E3,,2q7p2q7b[1:1]/3<6>3<6b[1:1],,
{8},,,,
,,,,
{16},,B7b/E7b/B6b/B5b,,
,B2b/E3b/B3b/B4b,,,
B7b/E7b/B6b/B5b/B2b/E3b/B3b/B4b/Cb/E5b,,,,
E5bf,,,,
{8}4/5,7/1,4/5,{24}2/8,,5,
4>8[16:3],,8,2,,,5/4,,,,,4,
{24}4v2^7[16:4],,1,8,,,4,,,7,,,
{24}6,,6x,5x,
,5x,4x,,
4x,3x,,,
{8}8x<5[8:1]/1,5>2[8:1],8x/2p8[4:1],,
,,B4/B5/E5,B7/B2,
{24}5xp4[4:1],,5,4,
,4,5,,
2,2,,,
3x>8b[8:1],,3,4,
,4,3,,
5,5,,,
{24}4/5,,,
1/2,,,
4/5,,,
7/8,,6,5>1[32:5]
,,2,8,
,,5,,
,7,,,
{24}6pp4[4:1],,8,7,,,{24}6b,,3,3,,,{24}3,,3x,4x,
,4x,5x,,
5x,6x,,1,
{24}8qq4[4:1],,,7,,,8/3,,,2h[8:1],,,
,,3,4,,,6q2[8:1]/5,,,8/2q6[8:1],,,
{24}6,,,4,,,4>8[16:3],,2,7,,4,,,,5,,,6^1[8:1],,,82,,,
{8}6pp4[4:2]b/3qq5[4:2],,,,
,,,4/5,
{8}4h[4:1]/5h[4:1],,,E3,
C,E7,1h[8:1]/8h[8:1],,
{8}3b/6b,3b/6b,,4/5,
4b/5b,,5bxqq7[4:1],,
{8},,E4/B3/B4,,
2>5[8:1],2,{32}A2b,A3,A4,A5,
,,,,
{8}7qq4[8:3],7,B2,,
B2,,B2,,
{8}6>3[16:3],6,6/7,,
2q7[16:3],2,2/3,,
{8}5,5,B1/B7,,
B1/B7,,B1/B7,,
{24}6h[24:3],,5h[24:3],,
,,,,
,,,,
3h[24:3],,4h[24:3],,
,,,,
,,,,
{24}5h[24:3],,4h[24:3],,,,{8}B2/B8,,
E2/B7,,B2/E8,,
{8}3h[4:1],,,,
6h[4:1],,,,
{8}4h[4:1],,B5,,
B3,,B4,,
