&title=其のエメラルドを見よ
&artist=庭師
&first=0.073
&des=(´;ω;`)
&lv_5=14+
&inote_5=(183)
{1},
{1}4>5[4:7],,
{1}4>5[8:5],
{2}8<5[10:1]/4>1[10:1],{16}1xs5[8:1]/5x-8[8:1],,,,,,,,
{16}4h[16:3]/3,,,2,,,5h[16:3]/6,,,7,,,4h[16:3]/3,,,2,,,
4h[16:2]/6,,,5h[16:2]/7,,,3h[16:2]/8,,,6h[16:2]/1,,,4h[16:2]/2pp1[16:10],,
{16}2,,,5h[16:1],,,6h[16:1],,,7h[16:1],,,8h[16:1],,,
7,3,7,2,7,1,7,8,7,{32}6xbv5-3b[32:7],5xb,4xb,,{16},,,,,,
{16}1xpp7[8:3],,2x,2x,,,7,,6,6,,,5<8[8:1],,8>3[8:1],,
{16}2,2,,,4x,5,6,7,5x,6,7,8,4x,5,6,7,
{16}8xqq3[8:3],,1x,1x,,,3,,2,2,,,1>4b[10:1],,7,,
{16},,7,7,{16}3,8,5,1h[16:6],,3x,,6x,,4x,,8x,
{16}4x-7[32:4],7x-5[16:1],,,,,,,18,72,,,5-2[8:1],4-2[16:1],6,3,
{16},,,,5x,6,7,8,5x,6,7,8,1,2,3,4,
{12}6,5,7,3,4,2,{16}6,2,6,1,6,8,6,7,{32}6xbqq1[8:5],5xbqq1[32:19],4xb,,,,,,{4},,,
{16}3h[8:3]/5,,,4,,,5,,4/6-8[8:1],,,,,,2,,
{16}71,,2,6,3,5,,,7-5[8:1]/4,,,,,,1,2,
{16}3h[16:3],,,5,,,7,,{2}3pp8[8:5]/4pp8[8:5],
{2},{12}1xs5[32:5]*pp2[32:5],1,1,{8},,
{16}6h[8:3]/4,,,5,,,4,,5/3h[8:3],,,,,,4,,
{16}53,,4,6,,5,,,8h[8:3]/2,,,,,,2,3,
{16}4h[16:4],,,7,,6<1[16:3],,,{4}1V35[8:2],5<4[32:14],
{4}1,,{16}8x<5[10:1]*p4[10:1],,,,,,,,
{16}7h[16:3]/3,,,,6,,5/8,,6V84[4:1],,,,61,,,,
{16}2h[16:3],,,,5,,7/3,,1-3v4[32:7],,,,16,,,,
{16}7-4[8:1],,,1,7,,2,,{2}1-5[8:1]/7-3[8:1],
{12}2,6,1,5,8,4,1xv4[10:1]/5xv8[10:1],26,73,,,,
{16}2h[16:3]/6,,,,5,,4/1,,2pp1[16:5],,,,82,,,,
{16}7h[16:3],,,,2,,5/1,,1xbs5[8:1]/5xb-8[8:1],,,,,,,,
{16}2/6,,3,5,1V35b[8:2],,73,,5<4b[32:14],,,,7,,,,
{16}6xh[16:2],,,,7xh[16:2],,,,8-4[10:1]/4-8[10:1],73,62,5x/1x,,,,,
{16}7,3,6,4qq1[16:7],,8,,6h[16:7],,,,,,,,,
{16}8,2,7,3qq8[16:7],,5,,7h[16:7],,,,,,,,,
{16}6x,6x<1[32:3],8x>2[32:3],8x,,56,,5,4,3,8,2,7,3,6,4,
{16}6x-4[16:1],,,3x-6[10:1],,,6x-2[10:1],,,,8b,,{12},7,7,
{16}4xbV25[32:6],,5x,5x-1[8:1],,7,,,8,7,6,5x,2,7,3,6,
{16}4xbV25b[32:6],,5x,5x-1b[8:1],,7,,6,{24},,,8,7,6,{16}5xb,,3,5,
{16}2xh[8:1],,4,8,6xh[8:1],,1,4,2x,,8,5,7,4,6,3,
{16}5h[16:3],,,2h[16:3],,,4,,,,8V64[8:2]/2,,,,4>5[8:3]/8,,
{16},,2,,4xq8[10:1],,,,4xv1[10:1]*-2[10:1],,,,,,,,
{16}3-7[8:1],,,5,3,,6,,8-3[8:1],,,5,8,,6,,
{16}2-6[8:1],,,5,2,,4,,{2}5v6[8:1]/3v2[8:1],
{16}8h[16:3]/4,,,3h[8:1],{32}7xb,6x,5x,,{8}2,
{16}1h[16:3]/5,,,6h[8:1],{32}2xb,3x,4x,,{8}8,
{16}6xb/2xb,,3/7,4xb/8xb,,{32}2b-6[16:1],,,7b,6V41[4:1],5,{16}2xb,,,,8h[32:1],,,,
{16}6-2[8:1],,,4,6,,3,,1-6[8:1],,,4,1,,3,,
{16}7-3[8:1],,,3,7,,4,,{2}6-2b[8:1]/5-1b[8:1],
{16}43,,,6/5,,,5/3,,2bV46[16:2]/7bV13[16:2],,,,2/7,,,,
{12}7,7,7,8b,8,8,1b,1,1,2bqq7[8:7],2,2,
{1},
{4}4h[4:1]/8,,4h[4:1]/1,,4h[4:1]/2,,4h[4:1]/3,,
{8}5/1>5[4:1],,6,,1<5[4:1],,5>1[8:2],,
{4}3h[8:4],,{16}7,3,7,3,{12}6pp6[8:2],1,5b,
{12},,,{16}4x,3,2,1,5x,4,3,2,1,8,7,6,
{12}1h[12:2],,7,2h[12:2],,5,3h[12:2],,8,4h[12:2],,6,
{12}5s1[4:1],5qq4[12:2],5,,,,{16},,2,8,{4}7^4[10:1]/1^4[10:1],
{4}7-1[10:1]/1-5[10:1],,{8}87,65,43,21,
{16}3,8,2,7,1,6,8,5x,5xh[16:5],2x,,8x,,3x,,5x,
{12}2,6,1,5,8,4,1xv4[10:1]/5xv8[10:1],26,73,,,,
{24}2x-6[10:1]/6,,,7x,6,5,2xb,,,7,,,8x-4[10:1]/4,,,3x,4,5,8xb,,,2,,,
{16}16,,,3xb/8xb,,,4xb>8b[8:1],,{2}4<8b[8:1]/8b,
{16}4x,5,6,7,5x,6,7,8,4x,5,6,7,8,1,2,3,
{16}7h[8:1],,4,6h[8:1],,1,5,2h[8:1],,6,3,7>6[16:10],,8x,3,7b,
{16},,7h[16:1],,8h[16:1],,1h[16:1],,2h[16:1],,3h[16:1],,4h[16:1],,5h[16:1],,
{8}1<5[8:1]*>5[8:1]/5x,,,,7xbV53[16:2]/2xbV86[16:2],,7b/2b,,
{32}1h[8:1]/5,,,,7h[8:1],,2xb,3,4,,,,6,,,,8h[8:1]/4,,,,3h[8:1],,7xb,6,5,,,,2,,,,
{32}1h[8:1]/7,,,,5h[8:1],,2xb,3,4,,,,6V48[4:1],,,,
{2}1>4[8:1],
{32}62,3,4,,,,71,6,5,,,,3b/8b,,,,{4}1bV35[8:2]/6b,5<4[32:14],
{16}7,,,5xp1b[16:1],,,5xb,,8xb<5[10:1]*p4[10:1],,,,,,,,
{12}1h[3:1]/2,,3,,4,,1h[3:1]/8,,6,,5,,
{12}4bq8[10:1]/3,,2,,1,,5bp1[10:1]/6,,7,,8,,
{48}8xb,7x,6x,,,,,,8xb,1x,2x,,,,,,1xb,8x,7x,,,,,,1xb,2x,3x,,,,,,8xb,7xb,6x,,,,,,8xb,1xb,2xb,,,,,,
{12}3xb/7,3xb/7,3xb/7,3xb/7,3xb/7,3xb/7,3xb/7,3xb/7,3-7[10:1]/7-3[10:1],,,3bV58[8:8]/7b,
{6},,1,1,,2,2,,4qq5[16:17],5,,,
{6}8,,7,7,,2x,1>7[16:6]/7,,6<2[16:5],1,1,,
{12}3,4,,2h[12:3]/5,,4,5,,5h[12:2]/3h[12:2],,,,
{12}6,5,,7h[12:5]/4,,5,4,,4,6,3,5,
{4}3^1[4:1],1^7[4:1],7^5[4:1],5^3[4:1],
{4}3^8b[4:1],8^5b[4:1],5^2b[4:1],2^7b[4:1],
{4}7<3b[4:1],3>7b[4:1],{8}7,,5w1[8:1],,
{1}5<4[1:1],
{2},{12}5b,3b,6b,{24}1x,5x,1x,5x,1x,5x,
{16}2x-6[8:1],,,7,2-4[12:1],,5,,2,7,,,73,62,15,,
{16}2b,4,3,5,4,6,5,7,3b,5,4,6,2,4,3,5,
{16}1-6[8:1],,,7,1^4[8:1],,4,,1,7,,,73,62,15,,
{16}3b,7,3,7,2,8,1,7,2b,6,2,6,3b,7,4,8,
{16}3x,2,1,8,4xb,3,2,1,5xb,6,7,8,4xb,5,6,7,
{24}2xb,3,4,1xb,2,3,8xb,1,2,7xbpp2b[8:3],8,1,{16}6xb,,,,,,,,
{1}4>5b[4:12]*^3^2^1^8^7^6^5[4:12],,,
{2},2h[4:1]/7h[4:1],
{8}2>5[4:1],,
5<8b[4:1],,8>3b[4:1],,3^6b[4:1],,
{16}6^8b[32:5],,,,8^2b[32:6],,,,2^4[32:7],,,,5w1[8:1],,,,
{4}5x,,,{16}65,,34,,
{32}27,,,,6,,4,,5,,3,,,,7,8,1,2b,,,,,,,{32}1xb,2,3,,8xb,7,6,,
{32}2xb,3,4,,1xb,8,7,,{32}2xb,3,4,5,6,7,8,1,{16}2/6x-2[8:1],,,3,6-4[12:1],,3,,
{16}6,1,,1,6,,8,,2-4[12:1]/4,,,6,2-6[8:1],,6,,
{16}2,8,,8,4,,1,8,7x-3[8:1]/3,,,2,7,,1,,
{16}8-4b[8:1],,7-3b[8:1],,8,,7,,1bV35[8:2],,,5xb,5xb<4[8:3],,,,
{16},,5xb,,5xb,,,,7/3^8[8:1],,,6,3-5[12:1],,6,,
{16}3,8,,8,3,,1,,7-3[8:1]/5,,8,2,7,2,,,
{16}5b/1bV35[16:4],,,,,,5xb<4[8:3],6,7,,,4x,4xv5[6:1],,,,
{4}5xs1-3b[32:11],7x-5[32:3],{16}7x,,,,6,5,8,5,
{16}1,3,4,3,8b,1,7b,2,5xb,3,6xb,8,6xbh[8:1],,4xb,6,2xb,4,2xhb[8:1],,6b,2,7b,1,
{32}8xb,7,6,5,8xb,7,6,5,1xb,2,3,4,1xb,2,3,4,
{16}8x<5[10:1]*p4[10:1],,,,,,,,{24}7xb,8,1,2,3,4,1xb,8,7,6,5,4,
{24}7xb,8,1,2,3,4,6xb,7,8,1,2,3,{16}8xb/4xb,,2/6,7xb/3xb,,2b-6[16:1],
{32},7b,6V41[4:1],5,2xb,,,,,,,,8h[32:1],,,,,,,,{16}7-4[8:1],,,3,7-3[8:1],,3,,
{16}7,1,,1,5,,8,,6/2^5[8:1],,1,8,2,8,,,
{24}1b-5b[10:1],6xb,1b,6xb,1b,6xb,{16},,,,64,,,3,4-6[12:1],,2,,
{4}4v3[8:1],4z8-2b[8:3],{8}7,7,,,
{8}64,3,24,5,{16}64,,,7,5qq3[6:1],,6,,
{4}5pp6[6:1],5qq8b[8:3],{8}1,1,,,
{16}74,,6,,52,,3,,7b/4b,,,6xb,3xb,,52,,
{4}7bw3[10:1]/8bw4b[10:1],7xb/8xb,{16}2,4,3,7,5,6,2,8,
{16}1bs5b[32:5],7,3b,5,{8}1b,,,{32}7b/3b,26,15,8/4^1[10:1],,,,,,,,,
{32}8b,7,6,5V31b[10:1],,,,,,,,,1bqq4>6b[32:30],8qq4>5[32:31],7,6,
