&title=Returns
&artist=poppin'party
&first=0
&des=reflectW
&lv_5=12
&inote_5=(185)
{1},
,
{8}7pp5[4:3],,,,,,,,
{8}4h[8:3],,,6h[8:3],,,,,
{8}3h[8:5]/5h[16:6],,{16},,{16},,,,{8},,,
3,,4,,5,,6,,
{8}7pp5[4:3],,,,,,,,
{8}4h[8:3],,,5h[8:3],,,,,
{8}6h[8:5]/4h[16:6],,{16},,{16},,,,{8},,,
7pp5[4:3],,4,,3,,2,,
3h[8:2],,5,4/5h[8:3],,,3,,
{8}6h[8:2],,4,5/4h[8:3],,,,,
3h[8:2],,5,4/5h[8:3],,,2h[4:4],,
{8}6h[4:1],,,,5h[4:1],,,,
7h[8:2],,4,5/3h[8:3],,,6,,
{8}2h[8:2],,5,4/6h[8:3],,,,,
7h[8:2],,4,5/3h[8:3],,,7h[4:3],,
{8}3h[4:1],,,,4,7,3,6,
{8}2,4,3,5,4,6,2,4,
{8}3,5,4,6,2,4,3,5,
{8}3,5,4,6,5,7,3,5,
{8}4,6,5,7,3,5,4,6,
{8}2,3,4,5,6,7,2,3,
{8}4,5,6,7,1,8,1,8,
{8}2,3,4,5,6,7,3,3,
{8}8,8,2,2,6,6,4^1[2:1],,
{8}5pp7[2:1],,,,,,1p3[16:9],,
{8}7^4[2:1],,,,,,3v8[2:1],,
{8}1^6[2:1],,,,,,1^4[8:3],5,
{8}5h[8:7],,,,6h[8:3],,,,
{8}5qq6[4:8]/6pp5[4:8],,,,,,,,
{1},
{8},,,,,,45,,
{4}6h[4:1],5h[4:1],4h[4:1],3h[4:1],
{8}7<4[8:3],,,4<1[16:7],,,1,,
{8}2>5[8:3],,,5>8[16:7],,,8,,
{8}6-2[8:3],,,,,,1>6[4:3],,
{8}6h[4:1],,,,7h[4:1],,,,
{16}5b/7b,,6,,6,,2b/4b,,3,,3,,1b/8b,,1b/8b,,
{16}3,,7b,,4,,4,,3b/6b,,4,5,4,5,4,5,
3b,,,,45,,3,,45,,6,,34,,2,,
56,,7,,34,,1,,56,,8,1,8,,4,,
(183){16}4qq4[4:7],,,,6,,,,
(172){16}7,,,,8,,7,,
(157){16}6,,5,,{32}5,,,,6,,,,
(134){16}6,,7,,7,,,,
(104){24}1h[24:45]/8h[24:6],,,,,,,,,,6h[24:7],,,,,,,,,,4h[24:10],,,,
{8},,,2h[8:4],,,,,
(185){8}1b/8b,,4^1[8:1],5,6,7-3[8:1]*-4[8:1],8,7,
{8},,7-3[8:1],,7^1[8:1]/3^1[8:1],,7^5[8:1]/3^5[8:1],,
{8}3-7[8:1]/7,,3,6,,{16}6V48[4:1],,2,,6,,
{8},1,1>5[4:1],,5V71[4:1],,1-3[8:1],,
{8}5,,5^8[8:1],4,3,2-6[8:1]*-5[8:1],1,2,
{8},,1-7[8:1],,1-3[8:1]/5-7[8:1],,1-6[8:1]/5-2[8:1],,
{8}1/5V36[4:1],,5,2,,,2v5[8:1]/6-1[8:1],,
{16}2/6,,,,46,,,,7,,4,5,4,5,4,,
{8}27,,4-1[8:1],5,6,7q3[8:1]*v4[8:1],8,7,
{8},,1^4[8:1],,1p5[8:1]/5^8[8:1],,1-3[8:1]/5-3[8:1],,
{8}5V71[4:1]/1,,5,3,,{16}3V51[4:1],,7,,3,,
{8},8,8<4[4:1],,4V28[4:1],,8-6[8:1],,
{8}4,,8^5[8:1],1,2,3^8[8:1],4,5^8[8:1],
{8},4,3^8[8:1],,5,,7,,
{12}1b/2b,,4b/5b,,7b/8b,,3b/4b,,5b/6b,,1b/8b,,
{16}2,1,2,1,2,,7,8,7,8,7,,2,1,2,1,
{8}2-5[8:1],,2,7-4[8:1],3,7,8,1,
{8}2^5[8:1],6,2,7^4[8:1],3,7,1>5[4:1],,
{8}5<1[4:1],,1V35[4:1],,5V71[4:1],,1q5[4:1],,
{8}5q1[4:1],,8,,7,,6,,
5h[8:2],,4,5/3h[8:3],,6,6,,
4h[8:2],,5,4/6h[8:3],,3,3,,
{16}8b^6[8:1]/1bp5[8:1],,,,8bq4[8:1]/1b^3[8:1],,,,1bw5[8:1]/8b,,,,1b,,,,
{16}2,1,2,,7,8,7,,{32}1,2,3,4,5,6,7,8,1b,,,,,,,,
{8}8,8,57,6,1,1,42,3,
{16}5,,6,,57,,8,,1pp3[8:1]/8qq6[8:1],,,,18,,,,
{16}4-8[8:1],,,,4/6-1[8:1],,,,2-5[8:1]/6,,,,2/8-4[8:1],,,,
{16}8/1-5[8:1],,,,1/7-4[8:1],,,,7/3-6[8:1],,,,36,,,,
{24}2b/7b,,,,,,,,,,,,3b/6b,,,,4,,,,5,,,,
{24}3b/6b,,,,,,,,,,,,3b/6b,,,,5,,,,4,,,,
{24}3b/6b,,,,,,,,,,,,3b/6b,,,,4,,,,5,,,,
{2}3b/6b,1/8,
{1}1bw5[1:3],
{1},
{1},
{24},,,,,,,,,,,,,4h[24:11],,,,,,,,,,,
{96}5h[96:84],,,,,,,,,,,,,,,,,,,,,,,,,,,,,,,,,,,,,,,,,,,,,,,,,,,,,,,,,,,,,,,,,,,,,,,,4pp4[1:2]*qq4[1:2],,,,,,,,,,,,4,,,,,,,,,,,,
{1},
{1},
{24},,,,,,,,,,,,6h[24:58]/5,,,,,,4,,,,,,
{24}3,,,,,,1,,,1,,,,,,,,,2,,,2,,,
{24},,,,,,3,,,,3,,,,,,,,4,,,,4,,
{24},,,,,,,,,,,,,,,,,,8-5[16:51]/4z8[1:3],,,,48,,
{1},,,,
(175){4}3h[4:1],4h[4:1],(151){4}5h[4:1],6h[16:10],(107){2},
(182){24}27,36,4h[24:82]/5h[24:84],,
{1},,,,,E
