&title=Mediocre
&artist=Sohbana
&first=-0.15
&des=Nyakuocre
&des_5=Nyakuocre
&lv_5=13+
&inote_5=(224){4},{8},,,{16}8x,1x,{4}2bx/7bx,
{8}2v5[8:1],2,1<6[8:1],1,2v5[8:1],2,1<6[8:1],1,
2v5-8[4:1],2,,7-3[8:1],,7,,,7v4[8:1],
7,8>3[8:1],8,7v4[8:1],7,8>3[8:1],8,
7v4-1[4:1],7,,2-6[8:1],,2,,,2v5[8:1],
2,1<6[8:1],1,2v5[8:1],2,1<6[8:1],1,
2v5-8[4:1],2,,7-3[8:1],,7,,,7v4[8:1],
7,8>3[8:1],8,7v4[8:1],7,8>3[8:1],8,
5,5w1[8:1],,5b,,,,7,
{4}7h[1:1],{8}3,3,{4}3,{8}2,2,
{4}2<7[8:1],7>2[8:1],{8},,6,6,
{4}6,{8}7,7,,8,{4}8,
1-5[8:1],1,{8},,3,2,
{4}1h[4:5],{8}5,5,5,5,,6,
{4}6,7-3[8:1],7,{8}1,1,
{4}1/8h[8:7],{8}2,2,{4}2,1,
8/B3,1/B6,7/C,{8}1,8,
7h[4:1],5,4,6h[4:1],4,3,5,5,
{4}3/5h[8:1],6/4h[8:1],5/4,{8}3,3,
{4}3,{8}2,2,,1,1,1,
{4}8-4[8:1],8,{8},,7,7,
3,4,2,6,5,7,3,4,
2,8,8/1,8h[4:1]/1h[4:1],,,{4}7-4[8:1],
7,{8}1>4[8:1],2,5<8[8:1],6,2q5[8:3],2,
,,,,,,{4}7-4[8:1],
7/3-8[8:1],3/7-2[8:1],7/3-6[8:1],3/5-7>8[8:1]*-8[8:1],
5-2[8:1]*-3>2[8:1],5-1[8:1],{2}5,
{4}3-8[8:1],3/7-4[8:1],7/3-6[8:1],3/7-2[8:1],
7/1>4[8:1],1<6[8:1],{2}1,
{4}2-5[8:1],2/6-1[8:1],6/2-7[8:1],2/6-3[8:1],
6/4-2<1[8:1]*-1[8:1],4-7[8:1]*-6<7[8:1],4-8[8:1],4,
7,{8}6/5,6/5,7/4,8/3,1/2,2b-6[8:1]/1b-5[8:1],
,1b/2b,,7b/4b,,,{4}8-4[8:1],
8b,{8}1-5[8:1],7-3[8:1],1,7,2v5[8:1],5V38[4:1],
2,6,7,7h[4:1],,,{4}1-5[8:1],
1b,{8}7-3[8:1],7,2-6[8:1],2,7v4[8:1],4V61[4:1],
7,3,2,2h[4:1],,,{4}2,
{8}7,{16}6,5,{8}6,7h[4:1]/4h[4:1],,,{4}6/3,
{8}5/2,{16}3,4,{8}3,5h[4:1]/2h[4:1],,,{4}5/2-6[8:1],
2,{8}8,8,7,7,6,6,
{16}5,4,5,4,6,3,6,3,{8}7bx/2bx,7b/2b,{4}8b/1b-5[8:1],
1b,{8}8-4[8:1],2-6[8:1],8,2,7v4[8:1],4V61[4:1],
7,3,2,2h[4:1],,,{4}8-4[8:1],
8b,{8}2-6[8:1],2,7-3[8:1],7,2v5[8:1],5V38[4:1],
2,6,7,7h[4:1],,,{4}8/1,
{8}1bx/2bx,1bxh[4:1]/3bx-6[8:1],,3b,,8,{4}7,
{8}8bx/7bx,8bxh[4:1]/6bx-3[8:1],,6b,,,{4}5-8[8:1]/4-1[8:1],
5/4,{8}2/7,7/2,3/6,3/6,5/4,5/4,
{1}4/5s1[8:5],
{8}7v4[8:1],7,8>3[8:1],8,7v4[8:1],7,8>3[8:1],8,
7v4-1[4:1],7,,2-6[8:1],,2,,,2v5[8:1],
2,1<6[8:1],1,2v5[8:1],2,1<6[8:1],1,
2v5-8[4:1],2,,7-3[8:1],,7,,,7v4[8:1],
7,8>3[8:1],8,7v4[8:1],7,8>3[8:1],8,
7v4-1[4:1],7,,2-6[8:1],,2,,,2v5[8:1],
2,1<6[8:1],1,2v5[8:1],2,1<6[8:1],1,
4,4w8[8:1],,4b,,,{4}8-6[8:1],
3/8-4[8:1],3/8,3/8,3/8-6[8:1],
3/8-4[8:1],8/3,3/8,6/1-3[8:1],
6/1-5[8:1],6/1,6/1,6/1-3[8:1],
6/1-5[8:1],1/6,6/1,1/8,
{8}7,7,5,5,8,8,{4}1/8-4[8:1],
2-6[8:1],8v5[8:1]/2v5[8:1],2/8,{8}3,6,
2,7,1,8-4[8:1],,8,{4}2>5[4:1],
5<8[4:1],1w5[8:1],1,{8}8,8,
7/1-4[8:1],7,7,7,6/1-4[8:1],6,6,6,
{4}5/1-4[8:1],1/5-8[8:1],5/1,{8}1,1,
2/8-5[8:1],2,2,2,3/8-5[8:1],3,3,3,
{4}4-1[8:1]*-7[8:1],4w8[8:1],4,{8}6,6,
1v4[8:1],5,1,6,3v8[8:1],7,3,6,
1v4[8:1],5,1-6[8:1],5,{4}1,2,
{16}2,1,2,1,3,8,3,8,4,7,4,7,5,6,5,6,
{4}7bx/4bx-6[8:1],7b-3[8:1],7b/2b-6[8:1],2b/8-4[8:1],
8b,{8}2-6[8:1],3,8-4[8:1],7,2v5[8:1],5V38[4:1],
2,6,7,7h[4:1],,,{4}1-5[8:1],
1b,{8}7-3[8:1],6,1-5[8:1],2,7v4[8:1],4V61[4:1],
7,3,2,2h[4:1],,,{4}2,
{8}7,{16}6,5,{8}6,7h[4:1]/4h[4:1],,,{4}6/3,
{8}5/2,{16}3,4,{8}3,5h[4:1]/2h[4:1],,,{4}5/2-6[8:1],
2,{8}8,8,7,7,6,6,
{16}5,4,5,4,6,3,6,3,{8}7bx/2bx,7b/2b,{4}8b/1b-5[8:1],
1b,{8}7-3[8:1],8,1-5[8:1],8,7v4[8:1],4V61[4:1],
7,3,2,2h[4:1],,,{4}8-4[8:1],
8b,{8}2-6[8:1],1,7-3[8:1],8,2v5[8:1],5V38[4:1],
2,6,7,7h[4:1],,,{4}8/1,
{8}8bx/7bx,8bxh[4:1]/6bx-3[8:1],,6b,,1,{4}2,
{8}1bx/2bx,1bxh[4:1]/3bx-6[8:1],,3b,,,{4}5-8[8:1]/4-1[8:1],
5/4,{8}2/7,7/2,3/6,3/6,5/4,5/4,
{1}5h[1:1]/4h[1:1],
,{4},,{16}1,
8,1,8,{4}2/7,
{8}7h[4:1],1,2,6h[4:1],2,3,5h[4:1],3,
4,3h[4:1],5,6,2h[8:1],7,{4}1/8,
{8}2h[4:1],8,7,3h[4:1],7,6,4h[4:1],6,
5,6h[4:1],4,3,7h[8:1],2,{4}8/1,
{8}6/8,7,6,5/4,3,2,1/8,7,
8/1,2,8/1-5[8:1],2,1/8-4[8:1],7,8/1,2,
3/5,6,7,8/2,3,5,1/2,8,
7/4,3,2-5[8:1],5-2[8:1],{4}2-7[8:1],7,
{8}6/4,3,2,1/7,6,4,8/7,1,
2/5,6,7-4[8:1],4-7[8:1],{4}7-2[8:1],2,
{8}1/8,2,3,4/5,6,7,8/1,2,
3/4,5,6-2[8:1],5,6-3[8:1],4,{4}6,
{8}8/1,7,6,5/4,3,2,1/8,7,
6/5,4,3-7[8:1],4,3-1[8:1],5,{4}3,
8,8,1,1,
{8}7/2,2/7,6/3,3/6,5-1[8:1]/4-8[8:1],4/5,{4}5/4,
8bx,{8}1-5[8:1],7-3[8:1],1,7,2v5[8:1],5V38[4:1],
2,6,7,7h[4:1],,,{4}1-5[8:1],
1b,{8}7-3[8:1],7,2-6[8:1],2,7v4[8:1],4V61[4:1],
7,3,2,2h[4:1],,,{4}2,
{8}7,{16}6,5,{8}6,7h[4:1]/4h[4:1],,,{4}6/3,
{8}5/2,{16}3,4,{8}3,5h[4:1]/2h[4:1],,,{4}5/2-6[8:1],
2,{8}8-4[8:1],8,1-5[8:1],1,7,7,
{16}4,5,2,7,1,8,2,7,{8}5x-8[8:1]/4x-1[8:1],5x/4x,{4}5x/4x,
8bx,{8}3-7[8:1],3,4-8[8:1],4,5-1[8:1],5,
6-2[8:1],6,8,8h[8:3],,,,,7-3[8:1],
7,8-4[8:1],8,1-5[8:1],1,2-6[8:1],2,
7-3[8:1],3V58[4:1],{4}7,,1x/8x,
{8}2bx/1bx,1bxh[4:1]/3bx-6[8:1],,3b,,8,{4}7,
{8}8bx/7bx,8bxh[4:1]/6bx-3[8:1],,6b,,,{4}5-8[8:1]/4-1[8:1],
5/4,{8}2/7,7/2,3/6,3/6,5/4,5/4,
{1}4/5s1[8:5],
{8}2v5[8:1],1<6[8:1],2,1,2v5[8:1],1<6[8:1],2,1,
2,2-6[8:1],,2/7-3[8:1],,7,,,7v4[8:1],
8>3[8:1],7,8,7v4[8:1],8>3[8:1],7,8,
7,7-3[8:1],,7/2-6[8:1],,2,,,2v5[8:1],
1<6[8:1],2,1,2v5[8:1],1<6[8:1],2,1,
2,2-6[8:1],,2/7-3[8:1],,7,,,7<5[8:1],
8>2[8:1],7-3[8:1],8-4[8:1],7<4[8:1],8>3[8:1],7,8,
7,8w4b[8:1],,8b,{16},,8x,1x,{4}2bx/7bx,
E
