&title=Devillic Sphere
&artist=3R2
&first=0
&des=THE_LK
&des_5=
&lv_5=13+
&inote_5=(160){1},
{16}3/6,,,,
{16}6,3,,3-7[8:1],{4}6h[4:1],
,7/2,{16}2,7,,7-3[8:1],{4}2h[4:1],
,3h[4:1],{16}4,4h[16:3],,5,{4}5h[4:1],
{16}6,6h[16:3],,5,{4}5h[4:1],{16}4,4h[16:3],,3,{4}3h[4:1],
{8}2-4[12:1],1,{4}2b/8b,{16}6,4,,4,{4}6-4[16:1],
4b,2/5,{16}3,5,,5,{4}3-5[16:1],
5b,{12}6,5,6,3,4,3,6,8,7,
3,1,2,Ch[4:3],{4},,{24},{8}1,
{4}1V35[4:1],5V71[4:1],1V35[4:1],5V71<5[2:1],
1b,5V31[4:1],1V75[4:1],5V31[4:1],
1,6b-3[4:1],3-7[4:1],7-2[4:1],
2-6[4:1],6>1[4:1],1V75[4:1],5p8[24:5],
{16}1x,2x,3x,4x,{4}5>8[4:1],{8}8q5[4:1],7,5>8[4:1],6,
8q5[4:1],7,5>8[4:1],6,8q5[4:1],7,5>8[4:1],6,
8V25[16:5],7,{4}6h[4:3],,{24}7x,8x,1x,2x,3x,4x,
{4}5x,E7/B6/B7/B1/B8/E1,B3/E3/B1/B2/B8/E1,Ch[4:1],
B6/B7/E7/B3/E3/B2,{16}6h[16:3],{8},{16}4,{8}5h[8:1],3,{16}2-7[32:3],4,3,4,
{4}2b,{16}6h[16:3],{8},{16}4,{8}5h[8:1],3,{16}2v1[8:1],4,3,4,
{4}2b,{16}6h[16:3],{8},{16}5,{8}6,5,{16}3h[16:3],{8},{16}4,
{8}3,4,{16}1h[16:3],{8},{16}2,{8}1,2,{4}1s5[16:5]*v4[16:5],
{2},{8}6h[8:1],{16}1,7,{8}4h[8:1],{16}1,3,
{8}8h[8:1],{16}2,7,{8}3h[8:1],{16}6,1,{8}7h[8:1],{16}4,1,{8}2h[8:1],{16}5,1,
{4}8h[4:1],{16}5,7,4,6,3,5,2,4,{24}1,8,7,6,5,4,
{4}3/7-3[12:1],{64}7/3,B7,C,B3,{4},,{16},,,{4}7h[4:3]/1-6[8:1],
1-5[8:1],{2}1-4[8:1],
{4}8/2h[4:3],{48}8,E1,B1,B2,{6}E3,{48}8,B8,{96},C,{48},{12}B4,,{48}8,E8,B7,B6,{6}E6,
{4}8h[4:3]/2-7[8:1],2-6[8:1],{2}2-5[8:1],
{4}7/1h[4:3],{48}7,E8,B8,B1,{6}E2,{96}7,{48},{96}B7,{48},{32}C,B3,{8},{48}7,E7,B6,B5,{6}E5,
{4}8/1-4[8:1],8/1,{48}8/1-4[8:1],E8,B7,B6,{12}E6,,{4}8/1,
5/4,{48}5/4-8[8:1],B5,{96},C,{48},{6}B1,4/5,{12},{48}5/4,B5,{96},C,{48},{6}B1,
{4}8/1-5[8:1],{48}8/1-3[8:1],D8,A7,D7,{6}A6,{48}8/1-5[8:1],B8,{96},C,{48},{12}B4,,{48}8,D8,A7,D7,{6}A6,
{4}3b/6b,8h[8:1]/6h[8:1],1h[8:1]/3h[8:1],5h[8:1]/4h[8:1],
7/2-6[8:1],2/7,{48}7/2-6[8:1],B7,{96},C,{48},{12}B3,,{4}2/7,
{8}4/6,3/7,{48}8/2-6[8:1],B8,{96},C,{48},{6}B4,2/8,{12},{48}8/2,B8,{96},C,{48},{6}B4,
{8}7/2<7[12:1],3/6,{4}2/5>2[12:1],5/8,{48}8/2,D8,A7,D7,A6,D6,{8},{4}2b/7b,
{48}7/2,D8,A8,D1,A1,D2,{8},{48}4/1>4[12:1],D5,A5,D6,A6,D7,{8},{4}7/1,
{8}2/8-3[8:1],7,6/8,7,{48}2/8-4[8:1],E8,B7,B6,{24}E6,1,{12},{4}8/6x,
1b/7b,{48}3/1-4[8:1],E1,B8,B7,{24}E7,2,{12},{8}7/1,8,{48}1/3,B1,{96},C,{48},{6}B5,
{4}7b/2b,{8}1/7,6,{48}7/3>8[12:1],D7,A6,D6,{24}A5,2,{12},{8}3/5-2[8:1],6,
{4}5/8-4[8:1],8/7h[8:1],{16}7,7,,7,{4}7h[8:3],
{8},3b,{4}1b>1b[4:13]/5b<5b[4:13],{1},,,{4},,{8},5b/1b,
{4}7bv5v3b[2:5]/3bv1v7b[2:5],{1},,{4},,,{16}6,
5,{8}6,{16}3,4,{8}3,{4}5-1[8:1],
5,8h[8:1]/2-6[32:3],8h[8:1]/2>4[12:1],8h[8:1]/2-6[32:3],
8h[8:1]/2>4[12:1],7h[8:1]/2-6[32:3],7h[8:1]/2>4[12:1],7h[8:1]/2-6[32:3],
2/7<5[12:1],2h[8:1]/7-3[32:3],2h[8:1]/7<5[12:1],1h[8:1]/7-3[32:3],
1h[8:1]/7<5[8:1],7/8h[8:1],{8}8/6h[8:1],7,{4}6/5-3[12:1],
7b,{8}3/6h[8:1],5,6/3h[8:1],4,3/6h[8:1],5,
6/3h[8:1],4,5/6h[8:1],2,4/3h[8:1],8,4/6h[8:1],1,
5/3h[8:1],8,2/1h[8:1],4,1/2h[8:1],4,2/1h[8:1],5,
1/2h[8:1],5,{16}2,3,{8}2,{16}7,6,{8}7,{4}5>8[24:5]/8-5[24:5],
{2},{48}7/1x,2,3,4,{6},{48}2/8x,7,6,5,{6},{48}1x/7,
2,3,4,{6},{48}1/7x,6,5,4,{6},{48}1/7x,6,5,4,{6},{48}8/2x,3,4,5,{6},{48}8/2,
3,4,5,{6},{48}7x/4x,6x/3x,5x/2x,4xh[16:3]/1xh[16:3],{16},,,{48}2x/5x,3x/6x,7xh[16:3]/4xh[16:3],{16},,,{48}6x/3x,5x/2x,4xh[16:3]/1xh[16:3],{16},,,{48}2x/5x,
3x/6x,4x/7x,{6},{32}7,6,5,4,3,2,1,8,7,6,5,4,3,2,1,8,7,6,5,4,3,2,1,8,
{4}3-7[12:1]/7-3[12:1],7/3/Cf,1-5[12:1]/5-1[12:1],1/5/Cf,
4-8[12:1]/8-4[12:1],4/8/Cf,2-6[12:1]/6-2[12:1],Cf/2v4[12:1]/6v8[12:1],
Cf,7b/B2/E2/B1,3b/B7/E8/B8,6b/B4/E4/B3/C,
2b/B6/B5/E6/E7,1b/Ch[4:3],,,,{16}5/4,
{8},{16}4,{8}5,6/5,{16}6,7,{8}6,
{16}7,8,{8}7,{32}1/8,{8},{32}8,{16},{8}1,1/2,{16}2,3,{8}2,
{16}4,3,{8}4,{16}4/5,{8},{16}5,{8}4,3/4,{16}3,2,{8}3,
{16}1,2,{8}1,{32}8/1,{8},{32}1,{16},{8}8,8/7,{16}7,6,{8}7,
{16}5,6,{8}5,{16}6h[16:3],{8},{16}5,{8}6h[8:1],5,{16}6/5,4/7,{8}8/3,
{16}8/3,4/7,{8}5/6,{16}3h[16:3],{8},{16}4,{8}3h[8:1],4,{16}4/3,2/5,{8}6/1,
{16}1/6,5/2,{8}3/4,{16}3,6,4,5,3,6,4,5,{32}3x,2,{16}1,{32}6x,7,{16}8,
{8},1bx/8bx,{32}2x/7x/D7/D3,A6/A3,{16}D6/D4,{8},{32}D7/D3/7xV15[4:1]/2xV84[4:1],A6/A3,{16}D6/D4,{8},{4}E1f,
,{8}4/5,B3/B2,5/4,B6/B7,{16}3,4,{8}2,
{16}6,5,{8}7,4/5,B3/B2/E3,5/4,B7/B6/E7,{16}3,4,{8}1,
{16}6,5,{8}8,4/5,B2/B1/E2,5/4,B8/B7/E8,{16}3,5,{8}1,
{16}6,4,{8}8,{16}1,7,8,5,4,1,{8}2,2/1,3/6,
{4}7/8v3[12:1],{48}7/8-2[12:1],B7,{96},C,{48},{6}B4,{48}7/8v3[12:1],D7,A6,D6,{12}A5,,{48}7/8,B7,{96},C,{48},{6}B4,
{4}1b/2bv5[12:1],{48}1/2-4[12:1],B1,{96},C,{48},{6}B6,{48}1/2v5[12:1],D1,A8,D8,{12}A7,,{48}1/2,B1,{96},C,{48},{6}B6,
{4}7b/2b,{16}3/7,3/7,,2/6,{8}2/6,1/5,{32}8,7,6,5,4,3,2,1,
8,7,6,5,4,3,2,1,{4}8h[1:1]/4h[1:1],
