&title=BrainRot
&artist=东京真中
&first=0.05
&des=Zombie
&lv_5=13
&inote_5=(135)
{1},
{32}3h[4:1],,,,,,,,,,,,B7,,,,E2,,,,5h[8:1],,,,E3,,,4h[8:1],,,,,
{32}6h[4:1],,,,,,,,,,,,B5,,,,B3,,,,7h[8:1],,,,E3,,,6h[8:1],,,,,
{32}3h[4:1],,,,,,,,,,,,B7,,,,E2,,,,5h[8:1],,,,E3,,,6h[8:1],,,,,
{32}3h[2:1],,,,,,,,,,,,,,,,B6/B5,,,,,,,,B1/B2,,,,,,,,
{16}2x/4,,3,,75,,6,,B6/2,,2,,7/B3,,7,,
{16}B5/2,,2,,B4/7<4[8:1],,7,,7x/3>8[8:1],,,,3x,,,,
{16}6x/4,,5,,13,,2,,57,,6,,34,,2,,
{16}3-7[8:1],,3,,4-8[8:1],,4,,5w1[8:1],,5,,A5f,,,,
{16}78,,6,,24,,3,,5h[2:1]/4,,4,,6,,6,,
{16}3,,2,,17,,6,,2-4[8:1],,5-1[8:1],,2pp6[16:7],,5,,
{16}2,,,,,,,,,,7x-5[8:1]/4x-8[8:1],,85,,74,,
{32},,,,2x-4[8:1]/5x-1[8:1],,,,14,,,,25,,,,,,,,,,,Cf/B2/B6,,,,,,,,,
{32}2>6[8:13],,,,,,,,8-4[8:1],,,,,,,,8,,,,,,,,2,,,,2-7[8:1],,,,
{32},,,,2,,,,,,,,,,,,,,,,,,,,,,,,,,,,
{32}2>6[8:13],,,,,,,,1-6[8:1],,,,,,,,1,,,,,,,,7,,,,7-2[8:1],,,,
{32},,,,7,,,,,,,,,,,,,,,,,,,,,,,,,,,,
{32}2>6[8:13],,,,,,,,7-4[8:1],,,,,,,,7,,,,,,,,2,,,,2-7[8:1],,,,
{32},,,,2,,,,,,,,8,,,,1,,,,2,,,,3,,,,4<4[8:7],,,,
{32},,,,,,,,,,,,,,,,,,,,,,,,,,,,,,,,
{32},,,,,,,,2-6[8:1],,,,,,,,4-8[8:1]/2,,,,,,,,48,,,,,,,,
{16}34,,2>5[8:1],,,,1-4[8:1],,,,8>3[8:1],,,,7<4[8:1],,
{16},,1-5-2[4:1],,2-7[8:1],,,,,,,,8,,1-5[8:1],,
{16},,7<4[8:1],,,,8>3[8:1],,,,4-8[8:1],,,,5-1[8:1],,
{16},,7-2-6[4:1],,6-3[8:1],,,,,,,,4,,5-8[8:1],,
{16},,2>5[8:1],,,,1-4[8:1],,,,8>3[8:1],,,,7<4[8:1],,
{16},,2,,1,,8,,5-7[8:1],,8-4[8:1],,5pp2[16:7],,8,,
{16}5,,,,,,,,,,4-8[8:1],,5,,6,,
{16},,5-1[8:1],,4,,3,,B4/B3,,,,B7/B8f,,,,
{16}1,,2-5[8:1],,3,,8-4[8:1],,7,,3<6[8:1],,2,,7pp2[8:3],,
{16},,6,,5,,4,,3,,,,1,,2-7[8:1]/4,,
{16}3,,5-1[8:1],,6,,3>8[8:1],,4,,7<4[8:1],,6,,2qq7[8:3],,
{16},,3,,4,,5,,6,,,,8,,5/7-4[8:1],,
{16}6,,3>8[8:1],,2,,6-3[8:1],,7,,1-5[8:1],,2,,6<8[8:1],,
{16},,6>4[8:1],,1>3[8:1],,6,,1-5[8:1],,6-8[8:1],,1pp5[16:7],,6,,
{16}1,,,,,,,,,,8-4[8:1],,1,,2,,
{16},,1-5[8:1],,8,,7,,B8/B7,,,,B3/B4,,,,
{32}4hb[8:1]/B7f,,,,,,,,4/6,,,,3,,,,2x-8^7[8:1],3x,4x,5xh[16:1],,,,,2x/E5,B4,B3,E3,,,,,
{32}7x-1^2[8:1],6x,5x,4xh[16:1],,,,,7x/E5,B5,B6,E7,,,,,1-4[8:1],,,,5-1[8:1],,,,1-6[8:1],,,,,,,,
{32},,,,2,,,,3,,,,4,,,,8x-2^3[8:1],7x,6x,5xh[16:1],,,,,8x/E6,B6,B7,E8,,,,,
{32}4x-6^7[8:1],3x,2x,1xh[16:1],,,,,4x/E2,B2,B3,E4,,,,,7-5[8:1],,,,3-1[8:1],,,,7,,,,3,,,,
{32}B7f,,,,,,,,3-1^8[8:1]/5,,,,6,,,,7x-1^2[8:1],6x,5x,4xh[16:1],,,,,7x-5^4[8:1]/E5,B5,B6,E7,,,,,
{32}3x-5^6[8:1],2x,1x,8xh[16:1],,,,,3x/E1,B1,B2,E3,,,,,7-4[8:1],,,,3-7[8:1],,,,7-2[8:1],,,,,,,,
{32},,,,5,,,,6-8^1[8:1]/4,,,,3,,,,2x-8^7[8:1],3x,4x,5xh[16:1],,,,,2x-4^5[8:1]/E5,B4,B3,E3,,,,,
{32}6x-4^3[8:1],7x,8x,1xh[16:1],,,,,6x/E1,B8,B7,E7,,,,,2-4[8:1],,,,5-1[8:1],,,,2>6[8:14],,,,5,,,,
{16},,,,8-4[8:1],,,,8,,,,7-2[8:1],,7,,
{16},,,,,,B3,,B4,,B5,,B6,,,,
{16}2>6[8:12],,,,1-6[8:1],,,,1,,,,7-2[8:1],,7,,
{16},,,,,,B3,,B4,,C,,B5,,B6,,
{16}2>6[8:12],,,,7-4[8:1],,,,7,,,,7-2[8:1],,7,,
{16},,,,,,8,,1,,2,,3,,4<4b[8:7],,
{16},,,,,,,,,,,,,,,,
{16},,,,1-5[8:1]/7-3[8:1],,,,7-2b[8:1],,,,A7f,,,,
{16},,2>5[8:1],,,,1-4[8:1],,,,8>3[8:1],,,,7<4[8:1],,
{24},,,7,,,2,,,24,,,35,,3,4,,2,5,,3,4,,,
{16}25,,1-6[8:1],,2,,1/4-8[8:1],,3,,4/2V46[4:1],,1,,26,,
{16},,7-5-1[4:1],,8/2-4[8:1],,17,,2,,,,2,1,3-8[8:1],,
{16}4,,3/7<4[8:1],,6,,7/2<8[8:1],,3,,2/5-1[8:1],,6,,3<5[8:1],,
{16},,3>1[8:1],,7<5[8:1],,3,,7-3[8:1],,2-8[8:1],,7qq3b[8:3],,2,,
{16}7,,,,1x-5[8:1],,,,1,,1x-5[8:1],,2,,3,,
{16},,1x-5[8:1],,2,,3,,,,6,,2b/7b,,,,
{16}E1,,4-1[8:1]/7,,3,,4/6-1[8:1],,7,,6/2-4-6[4:1],,3,,27,,
{16}8,,7,,6<1[8:1]/2>5[8:1],,73,,62,,,,3,4,2-5[8:1],,
{16}1,,2/8-4[8:1],,7,,8/2-8[8:1],,3,,2/7V53[4:1],,6,,73,,
{16},,2-4-8[4:1],,1/7-5[8:1],,82,,7,,,,7,8,6-1[8:1],,
{16}5,,6/2>5[8:1],,3,,2/7>1[8:1],,6,,7/4-8[8:1],,3,,7<5[8:1],,
{16},,7>1[8:1],,3>1[8:1],,7,,3<5[8:1],,7-1[8:1],,3<2b[8:3],,7,,
{16}3bx,,,,,,,,,,5x-1[8:1],,4,,3,,
{16},,5x-1[8:1]*-1[8:1],,4,,3,,3q6[2:1],,,,,,,,
{16},,,,,,,,,,,,,,,,E
&inote_6=
