&title=Stargazing Dreamer
&artist=xi
&first=0.49
&des=DreamStar
&lv_5=14+
&des_5=DreamStar
&inote_5=
(202){4},{8},,,,,,,,,,,B6,
B5,B4,
{4}B3/B7,C,{8}B6,B7,B8,B1,
{32}B2/B6,B3,,,,,,,{4}E6,{32}E4/E8,B4,,,,,,,{4}E1,
{32}B7/B3,B4,,,,,,,B6,B5,,,B2,B3,,,,,,,B7,B6,,,,,,,B1,B2,,,,,,,{16}E8,
B7,{4}Ch[2:1],E4,E2,
8,7/3,{8}4,6,3,7,
{4}8/4,{8}3,2/5,,3/6,,7/4-1-6-2-8-4[8:7],
,,,,5,,,5w1[16:3],
,,,,1/7,2,7/3,6,
{2}3bxh[2:1]/5bxh[2:1],Cf/B6/B7/B8/B1/B2,
4bxh[2:1]/7bxh[2:1],Cf/B6/B2/E3/B3/E6/B5,
{4}2/6,{16}2,3,{8}4/6-1[8:1],,6/4-8[8:1],,4,
{16},,1,6,{8}1,{16}7,3,{4}7-4[8:1],7x/4x,
{8}2/5,2,2/5,2,7/3,7,7/3,7,
{4}7/5-2[8:1],{8}5/7,8-4[8:1],,8/1,,5bx/3bxp2[8:13],
,,,,,,,,{1}Ch[2:1],
{4}7/1,{8}2,6,3,5,{4}6x/2xh[32:7],
6x/B2,{32}6x/B2,2xh[32:7],,,,,,,{4}5,{8}1,5,
2,6,{4}7x/1xh[32:7],7x/B1,{32}7x/B1,1xh[32:7],,,,,,,{4}6,
{8}7,3,6,4,{4}3x/7xh[32:7],
3x/B7,{32}3x/B7,7xh[32:7],,,,,,,{4}4,{8}8,4,
7,3,{4}2x/8xh[32:7],2x/B8,{32}2x/B8,8xh[32:7],,,,,,,{4}3,
{8}2/6,7,8,1,{4}2/8-6[8:1],
E3/8-4[8:1],8/E3,2,{8}3/7,8,
1,2,{4}3/1-6[8:1],E4/1-5[8:1],1/E4,
2,{8}7/3,2,1,8,{4}7/1-3[8:1],
E7/1-5[8:1],1/E7,{8}4/6,4/6,7,8/3,
8/3,2,1/7,8,2/8,1,{4}1/7,
2/1w5[4:1],1b,{8},,3/5<1[4:1],{16}3,4,
5/2h[2:1],,,,,3,4,5,6,7,8,1,{4}3-8[8:1]/2-6[8:1],
3/2,1h[4:1]/7h[8:3],{16},,,,,2/1-5[8:1],,,1/7-4[8:1],
,,7,,,,,{4}2,{8}2/6,{32}6x,5x,{16}4x,
{32},,,,1x,2x,{16}3x,{4}7h[4:1],4,{8}6,2,
{4}7/3>8[8:1],{24}3/7,6,5,4,3,2,1,8,7,6,5,4,1/3,2,3,4,5,6,
7,8,1,2,3,4,{4}5/6<8[8:1],{8}6/3,3,{4}3>1[8:1],
{8}3/7,7,7/8,7/8,1,1,{16}1,8,,3,
{8}4,{16}6,5-3[16:1],,,{8}6b,{4}7b,2/6,
{16}4/7h[2:1],,,,,6,5,4,3,2,1,8,{4}6-1[8:1]/7-3[8:1],
6/7,8h[4:1]/2h[8:3],{16},,,,,7/8-4[8:1],,,8/2-5[8:1],
,,2,,,,,{4}7,{8}6/2,{32}2x,3x,{16}4x,
{32},,,,7x,6x,{16}5x,{8}4x/3x,3/4,{16}5,,,6/4,,,{8}6/4,
{48},,,6/4,3,,{24}2,1,8,7,6,5,4,3/7,2/6,1/5,4,3,2,{48}1,4x,{24}8,{8}7,3x,
{16},2x/6,,,{4}5/1xw5[8:1],1,{16}8/7,,,6/5,
,,{8}4/3,{16}1/2h[2:1],8,7,6,5,4,3,1,8,7,6,5,
4/2,3,4,5,6,7,8,1,4/2,5,6,7,{32}1x/8,2x,3x,4x,5x,6x,7x,8x,
{4}1x,{8}6/1,2,3/8,7,6/2,3,
4/7,6,{16}5,4,5,4,6,3,6,3,7,8,,6,
{8}5,4,3/5,E8,E4,E6,E2,E7,
E3,Ch[8:1],{16},,3,4,{4}2b,7/8>3[8:1],
8/6,{8}6/4,7,8/3,2,{4}1w5[8:1],
1,7w3[8:1],7,{8}1/5,{16}2,3,
{8}4/6,6-1[8:1],,6/2-6[8:1],,2/8,{16},,8,7,
{8}4/6,{16}2,3,{4}4/5-2[8:1]*-8[8:1],5,1w5[8:1],
1b,{8}1/2,3/4,6/5,8/7,{4}1-5[8:1],
{8}1/8,7-3[8:1],,7/4,,2h[8:1],3,6h[8:1],
5,1h[8:1],{16}7,8,{8}7,6,5/3-1[8:1],,3,
{4}4,{32}2x,3x,4x,5x,6x,7x,8x,1x,2x/7x,6x,5x,4x,3x,2x,1x,8x,{4}7x/3w7[8:1],
3b,{8}1/5,2,3/6,7,{4}8w4[8:1],
8,2w6[8:1],2,{8}8/4,{16}7,6,
{8}5/3,3-8[8:1],,3/7-3[8:1],,7/1,{16},,1,2,
{8}5/3,{16}7,6,{4}5/4-7[8:1]*-1[8:1],4,8w4[8:1],
8,{8}8/7,6/5,3/4,1/2,{4}8-4[8:1],
{8}8/1,2-6[8:1],,2/5-1[8:1],,5,,2,
3,4/5,6,7,8/1,{16}2,1,{8}2,3,
4/5,{16}6,5,{8}6,7,8,1/8,,7,
6,5/4,3,2,{16}1/8,7,6,5,{8}4h[4:1],{16}1,2,
{8}3,5,{16}1/6,2,3,4,5,6,{8}7b-1-5-3[2:7],{1},,,{4},,,{8},7<4[2:1],
,,,C,
,,,2>5[2:1],,,,C,
,,,7qq4[8:9]/8pp3[8:9],{1},{4},,{16}B5,
B3,{8}Cf,,1h[4:1],,5,
{16},,2,4,2,4,3,5,3,5,{8}4h[4:1],,7,
{16},,6,5,6,5,7,4,7,4,{8}8h[16:3],{16},1,,,,2/3,
,,5/4,,,7/6,,,{8}8/1h[4:1],,8,
{16},,2,8,2,8,3,7,3,7,{8}3h[4:1],,5,
{24},,,8x<5[8:1],7,6,8x>3[8:1],1,2,8x,7x,6x,8x,1x,2x,8xh[4:1],,,,,,{8}2x,
{24},,,1x>4[8:1],2,3,1x<6[8:1],8,7,1x,2x,3x,1x,8x,7x,1xh[4:7],{1},{4},,{16},,,{48},{8}8x-4[8:15],
,,{4}B1,
B7,B2,B6,B3,
B5,Ch[4:1],,6<1[2:1],
3,2,{8}3,3,3>8[4:1],6,
,7,{32}7,6,5,4,3,2,1,8,{4}7b/Cf,{8}8/1,{16}7,6,
{8}5/2,2-5[8:1],,2/6-2[8:1],,6/4,,4,
{16},8/3,,,5/6,,,2/4,,,{8}8/6,{4}5w1[8:1],
5b,{8}5/6,7/8,2/1,4/3,{4}5-1[8:1],
{8}5/4,3-7[8:1],,3/8,,6h[8:1],7,2h[8:1],
1,5h[8:1],{16}3,4,{8}3,2,1/7-5[8:1],,7,
{4}8,{32}7x,6,5,4,3,2,1,8,7x/2x,3,4,5,6,7,8,1,{4}2x/7xw3[8:1],
7b,{8}8/1,2/3,5/4,7/6,{4}1/8w4[8:1],
8,6/2w6[8:1],2,{8}2/1,{16}2/1,3/8,
{8}4/7,7-4[8:1],,7/3-7[8:1],,3/5,{16},,1,2,
{8}5/3,{16}7,6,{4}5/4-7[8:1]*-1[8:1],4,{8}8/2,7,
6/3,2,1/5,6,7/2,3,4/8,{16}7,5,
{8}7,4-2[8:1]/8-6[8:1],,4/8,,5/1h[8:3],,7,
7,7,{16}8b,7,6,5,7b,6,5,4,6b,5,4,3,
5b,4,3,2,{32}8b,7,6,5,4,3,2,1,{8}8/4b,4b,,2,
2,2,{16}1b,2,3,4,2b,3,4,5,3b,4,5,6,
4b,5,6,7,{32}1b,2,3,4,5,6,7,8,{8}1/5b,5b,,7,
7,7,8/2,{32}8/2b,3,4,5,{8}6,1,1/7,{32}1/7b,6,5,4,
{8}3,{16}8b,7,6,5,7b,6,5,4,{8}3/7b,{32},,,,1b/4b,2/5,3/6,4/7,
{8}5/8,{32}8b/5b,7/4,6/3,5/2,{8}4/1,{32}8b,1,2,3,4,5,6,7,8,1,2,3,{16}8b/4h[4:1],7,{8}6,
5,3,5,2v5[8:1]/6v1[8:1],3/7,6bx/Cf/2bx<1<8<7<6>5>4>3>2[8:31],{16},,,,,,,,,,,,B7,
B6,B5,B4,B3,B2,B1,B8,
B7,B6,B5,B4,B3,B2,B1,B8,B7,B6,B5,B4,{4}Ch[1:2],
E
