&title=Change the Game feat. 松永依織 (Muse Dash ver.)
&artist=REDALiCE & USAO
&first=0
&des=T-tc
&lv_5=13+
&des_5=T-tc
&inote_5=
(200){4},,,,,,,(100),
{8}E1,E8,E7,E6,{16}E5,E4,,,{8}E2,E3,
{16}E4,E5,,B6,,B8,,E2,,C,,6,5,4,{8}3h[8:1],
E1,E2,E3,E4,{16}E5,B6,,,{8}E8,E2,
{16}E4,E6,,B7,,C,,6,3,5,4,5,3,3h[16:33],{8}4x,
,B7/B6,,B5/B4,,B3/B2,,B8/B1,
,B7/E7/B6,,B5/E5/B4,,B3/E3/B2,,6h[1:2],
,B2/B3,,B4/B5,,B6/B7,,B1/B8,
,B2/E3/B3,,B4/B5/E5,,B6/E7/B7,,5v4[8:1]*-8[8:1],
,5,,8-5[8:1]/5>8[8:1],,8/5,,7-1[8:1]/8-4[8:1],
,8/7,,6<2[8:1]/7<3[8:1],,6/7,,6<1[8:1]/7<4[8:1],
,6/7,,8-2[8:1]/1-5[8:1],,1/8,,3<1[8:1]/4>3v6[8:1],
,4/3,{16},,E7,E6,,Cf,,,,,{8}6-1[8:1],
4,6,{16}3,3,{8}4-1[8:1],6,4,{16}5,5,{8}4-7[8:1],
3,3,{16}2,2,{8}1-5[8:1],8,1,8,7-3[8:1],
7,6-2[8:1],6,5-1[8:1],5,4-8[8:1],4,{16}2,2,
2,2-6[16:3],{32}8x,2x,8x,2x,8x,2x,{16}8x,,,,,,,,,{8}2x/4x,
4x/2x,{16}4x/2x,3x,{8}2x/4x,A7/A5,A7/A5,{16}A7/A5,A6,{8}A7/A5,2x/4x,
4x/2x,{16}4x/2x,3x,{8}2x/4x,A7/A5,A7/A5,{16}A7/A5,A6,{8}A7/A5,{16}3x,3x,
6x,6x,4x,4x,5x,5x,2,2,7,7,1,1,8,8,{64}1,2,3,4,5,6,7,8,
1,2,3,4,5,6,7,8,1,2,3,4,5,6,7,8,1,2,3,4,5,6,7,8,(200){8}1bh[4:3],,,,,,8-4[8:1]*-4[8:1],
,8qq2[0.3##1.8],,,{4},
{8},,,,,,,,,,,7bx-3[8:1],
,7/1bx-5[8:1],,1/8bx-4[8:1],
,8/5bx-1[8:1],,5/7bx-4[8:1],,7/8bx-3[8:1],,7/8bx-5[8:1],
,8/4x-1[8:1],,4/5bx-8[8:1],6x,5/2bx-6[8:1],,2/1bx-5[8:1],
,1/3bx-8[8:1],,3b,,,{4}8b-4[8:1],
{8}8b,2b-6[8:1],,2b/6,7,8bx-5[8:1]*-6b[8:1],5,8bx-4[8:1],
,8bx-3[8:1]*-2b[8:1],,8bxV64[8:1],,8bx,1,2,
{16}2x,1x,3x,4x,{8}2x,1bxv4[8:1],3x,1xv6[8:1]*-6b[8:1],,1x-3b[8:1],
,1x<4[4:3],7x,Ch[4:3],,,,,,,,1/7bx-3[8:1],
6,7/5bx-1b[8:1],,5/4bx-8b[8:1],
,6bxv3b[8:1],,6/1bx-5[8:1],,1/5,6,7/5x,
{16}6x,5x,7x-3[8:1],8x,{8}6x,7/1bx-5[8:1],,1/8,8,8-5b[8:1],
,8/2bx-6b[8:1],,2/7bx-4b[8:1],,7/1bx-5b[8:1],,1/6V82b[4:1],
6x,4x,5,6x>2[4:1],6x,2x<7[4:1],,7<4[4:1],
,4>8[4:1],,8<4[4:1],,4>8[4:1],,8<3[4:1],
,4,{32},,,,E3,E2,E1,E8,E7,E6,E5,E4,E3,E2,E1,E8,E7,E6,E5,E4,E3,E2,E1,E8,
E7,E6,E5,E4,E3,E2,E1,E8,E7,E6,E5,E4,{8}Cf/E3,,,,,,,,1/8h[8:3],
{4}Cf,{8}1h[8:3],Cf,
,7h[2:1],{4}Cf,{2}2>1[2:1],
{8},,,7h[8:3],{4}Cf,{8}2h[8:3],Cf,
,5h[2:1],{4}Cf,{2}3-5V71-4[2:1],
{8},,,6h[8:3],{4}Cf,{8}1h[8:3],Cf,
,5h[2:1],{4}Cf,{2}8v3>1-6[8:3],
{8},,,7h[8:3],{4}Cf,{8}4h[2:1],Cf,
,7-5-8[8:3]*-5-1[8:3],,,,,,,,,,5x/7x,
,5x/7x,,5x/7x,
6x,7x/5x,,A4/A2,,A2/A4,,A2/A4,
A3,A4/A2,,5x/7x,,5x/7x,,5x/7x,
6x,7x/5x,,A4/A2,,A2/A4,,A2/A4,
A3,A4/A2,,6-1[8:1]*-1[8:1],,,,3-8[8:1]*-8[8:1],
,,,7-4[8:1]*-4[8:1],,,,2-5[8:1]*-5[8:1],
,,,8-4b[8:1],,6-1b[8:1],,5,
,4h[1:1],{16},,,,,,,,,,,,,,8-4[8:1],
7,6,5,{8}8,,8,7,5/6,
4,3/5>1[4:1],2,1<5[4:1],,5p7[4:1],,1x,
1x,{16}1V75[4:1],2x,3x,4x,{8}1/5x-3-1[4:1],,1<6[4:1],,5,
5,4,{4}3-5-8[4:1],8-3[8:1],{16}7x,6x,{8}5x-8b[8:1],
4x,{16}1x,2x,{8}3xh[8:3],1x-5[8:1],,1x,2x,3,
4x>8[4:1],4x,{4}8<4[4:1],4>8[4:1],{8}8,7,
6,6h[4:1],{16}5x,4x,{8}3x-7[8:1],3x,6x>1[4:1],,1x-7-5[4:1],
,5-3-1[4:1],,1-7-5[4:1],,5>7[4:1],,8,
,5h[4:1],,8h[4:1],,4h[8:3],{4}7,
{8}6h[8:3],3,,2h[8:3],{4}5,{8}4h[8:3],1,
1,8-4[8:1],,8b,,8h[8:3],{4}3,
{8}2h[8:3],7,,6h[8:3],{4}1,{8}8h[4:1],5,
5,6-2[8:1],{16}1,2,{8}3-7[8:1],3,1<6[8:1],{4}1,
{8}3,2,1,8,{4}6/2<6[4:1],6>8[4:1],
1,{32}7x,6x,5x,4x,3x,2x,1x,8x,7x,6x,5x,4x,3x,2x,1x,8x,7x,6x,5x,4x,3x,2x,1x,8x,
7x,6x,5x,4x,3x,2x,1x,8x,7x,6x,5x,4x,{8}3x/Cf,,,,,,,,1/8-4[8:1],
,8/7,,8-4[8:1],
,8/1,,1-5[8:1],,1/7,,7,
6,5/3h[4:1],,4-1[8:1],,4/6,,6-8[8:1],
,6/3,,4-1[8:1],,5/4,,6,
7,2/8h[4:1],,2-6[8:1],,2/1,,7-4[8:1],
,7/8,,3-8[8:1],,5/3,,6,
1,7h[8:5],,E2/B1/B2,{4}E4/B3/B4,3h[1:1],
{8},8,,E8/B8/B7,{4}B6/E6/B5,Cf,
{8},,,7-4[8:1],4,7,3,2-5[8:1],
5,2,6,8-5[8:1],5,8,4,1-4[8:1],
4,1,5,6-1[8:1],4,6,3,2-5[8:1],
5,2,6,7-4[8:1],4,7,3,2<5[4:1],
,5>1[4:1],,1<5[4:1],,5>8[4:1],,8<4[4:1],
,4>8[4:1],,8<4[4:1],,4,,8h[4:1],
,4,{16},,2b,4,{8}3,{16}7b,5,{8}6,4b,
4b,{16}6,5,{8}6,3bxh[16:3],{16},5bxh[16:3],,,{8}2bxh[4:1],4bx,
4bx,E5,E6,E8f/B7/B8,,,{4}B3/E4f/B4,
{8},Cf/B8/B7/B6/B5/B4/B3/B2/B1,,,{2}Ch[8:7],
E
