&title=ルラ(feat. さユり)
&artist=n-buna/さユり
&first=0
&lv_5=13
&des=软糖酱
&des_5=软糖酱
&inote_5=
(200){4},{12},,,,,,,,,7<4[8:1],
,,,,1q3[8:3],,,,{4}6h[4:3],
{24},,,,,,,,,,,,2qq5[4:5],1,{12}8,{24},,,,,,,,6qq1[4:3],
5,{12}4,,,,,,,,,,,,,,,,,,,,3h[6:1],
,5,
{8}4h[8:3],,,7h[4:1],,5-1[8:1],,6,
{24},,,,,,{12}7,,5h[2:1],,,,,,6,
{6}4h[6:1],5,{12},3,{6}5h[6:1],4,{12},,{4}7b/2b,
{12}4,,4,{4}5h[4:1],{12}1-5[8:1],,6,
{6}6,4,{12},7,{6}5,{12}6,4,,,8-4[8:1],
,,,,2,,,3,4,,6,
{6}5,{12}2,4,,7,{6}5,{12}3,1,,6,
{6}8,{12}1,2,,8,{6}7-4[8:1],{12}8,7,,3,
{6}3,5,{12},2,{6}4,{12}3,5,,,8-4[8:1],
,,,,2,,,3,4,,6,
{6}5,{12}2,4,,7,{6}5,{12}3,1,,6,
{6}8,{12}1,2,,8,{6}7-4[8:1],{12}8,7,,1,
2-5[8:1],,,,,6,{6}6,{12}5,7,,7,
{4}4>1[4:1],{12}1<6[4:1],,7,{4}6>4[6:1],{12}8,,8,
{6}3,{12}3,6,,6,{6}5,{12}6,5,,5,
{6}7,{12}7,4,,4,{4}8-6[8:1],3qq5[8:3],
{2}5b,{4}6-4[8:1],4,
7/3,8/2h[2:1],{12},,,1,,1,
{6}3,{12}3,4,,4,{6}5,{12}5,6,,6pp5[8:3],
,,,,,,,,,4,,4,
5-1[8:1],,,,,2,{6}8,{12}8,3,,3,
{6}4,{12}4,5,,5,{4}6,{12}7,,7,
{6}6,{12}6,5,,5-1[8:1],,,1,2,,2,
{6}3,{12}3,4,,4,{6}5,{12}5,6p3[8:3],,,{2}8,
5w1[8:1],
{4},4w8[8:1],{12},,,6,,6,
{6}5,{12}5,4,,4,{6}3,{12}4,3,,,{4}1b-5[8:1],
5,{2}4,
{12}6,5,6,3,4,3,{4}5-1[8:1],2,
8-4[8:1],1b,2,3,
{6}4,{12}4,5,,5,{6}6,{12}6,7,,7,
{4}8-4[8:1],{12}4,,5,,,2-5[8:1],,,2,
{4}1-5[8:1],8-4[8:1],7-3[8:1],6-2[8:1],
{6}7,7,{12},8>3[8:1],,,5,5,,,{4}4,
{12}5,,5,{6}4,{12}4,7,,1-5[8:1],
{6}8-4[8:1],1,{12},3b,,,,5,,6,
{6}5,{12}2,4,,7,{4}5,{12}8/4,,6>3[8:1]/2q7[8:1],
,,,,,,{2}1h[4:1]/8h[4:1],
{4}4/7,5/7-4[8:1],8/7,{12}3,,3,
{6}4,{12}4,2-5[8:1],,5,,,,6,,6,
{4}5-2[8:1],{12}7,,7,{6}1,{12}1,8,,8-5[8:1],
,,{6}4-1[8:1],{12},4,{4}5,{12}4pp8[2:1],,3,
{4}4,{12},,,,,,2pp6[2:1],,2,
{2}1,{12}8<5[8:1],,,,,2,
4,3,4,1-5[8:1],,,{4}6,8b,
{6}4,{12}4,6,,6,{4}5-3[8:1],{12}7,,7,
{6}2,{12}2,8,,8,{4}2b/1b,6b/5b,
8b/7b,{12}4/3,,5/2,,,6,5,,4,
{6}5,{12}2,4,,4,{6}3,{12}3,1,,1-6[8:1],
,,{6}1b-4[8:1],{12},1b,,,7,5,,5,
{6}6,{12}6,8,,8,{6}5,{12}5,1,,1,
{4}7-4[8:1],7b/1-5[8:1],1b/8-4[8:1],8b/2,
{6}1,{12}1,3,,3,{6}4,{12}4,5,,5pp5[4:1]*qq5[4:1],
,,{6}5-1[8:1],{12},,,,,8,,8,
{6}6,{12}6,5,,5,{6}4,{12}4,3,,3qq4[400:149],
,,,,,,,,3,4,,5,
{6}4,{12}7,5,,5,{6}6,{12}6,8,,8-3[8:1],
,,{6}8b-5[8:1],{12},8b,,,2,4,,4,
{6}3,{12}3,1,,1,{6}4,{12}4,8,,8,
{4}2-5[8:1],2b/8-4[8:1],8b/1-5[8:1],1b/7,
{6}8,{12}8,6,,6,{6}5,{12}5,4,,4,
,,{6}1b-5[8:1]/2b-6[8:1],{12},,,,,4,,4,
{6}5,{12}5,8,,8,,,8b>7[8:5]/7b<8[8:5],8/7,,,,,,,,,,,,,,,{4}2-6[8:1],
6,{6}8-4[8:1],{12}4,3,,2,
{6}1,{12}5,6,,4,{6}5,{12}3,4,,,{4}1b-3[8:1],
{12}5,,5,{6}4,{12}4,6,,6,
{4}7-5[8:1]/8-4[8:1],8/7,2-4[8:1]/1-5[8:1],1/2,
{6}6,{12}6,4,,4-8[8:1],,,6,5,,1,
{6}2,8w4[8:1],{12},8,,,,,,,{6}7,
{12}7,6,,6,{6}5,{12}3,4,,6,
{4}5-1[8:1],7,{6}2,{12}2,3,,3,
{4}4-8[8:1],{12}7,,7,{6}6,{12}6,5,,4>1[8:1],
{6}5,4,{12},,{4}6,{12}8,,8,
{6}7,{12}7,6,,6,{6}5,{12}4,5,,4/7,
{6}5/6,{12}7/4,8/3,,1b-6[8:1]/2b-5[8:1],,,1/2,,,4,
{6}5,{12}3,4,,4,{6}3,{12}5,4,,5/2,
{6}3/4,{12}2/5,1/6,,8b-3[8:1]/7b-4[8:1],,,{3}8/7,
{4}1>4[8:1],{12}4,,6,{6}5,{12}5,6,,4,
{4}8<5[8:1],{12}5,,3,{4}4,{12}2,,2,
{6}4,{12}4,6,,6,{4}8>3[4:1],3<6[4:1],
6<1[4:1],1>4[4:1],{8}4<7[8:3],,,7>4[8:5],
{4}8,1h[4:3],,,7h[4:1],
6h[4:1],{2}5h[2:1],
{12}3,4,2,6,5,7,3,4,1,6,5,8,
{4}4qq8[8:3],{8}4,6,,7,{4}1,
{1}7bz3[4:3],
{6},5-8[8:1]/4-1[8:1],{12},5b/4b,,,2,2,,4,
{6}3,{12}5,4,,6,{6}5,{12}5,7,,7,
{4}1-4[8:1]*-3[8:1],1b-6[8:1]*-7[8:1],1bw5[8:1],1b,
{6}8,{12}8,6,,6,{6}5,{12}5,4,,4qq4[4:1]*pp4[4:1],
,,{6}4-8[8:1],{12},,,,,1,,1,
{6}3,{12}3,4,,4,{6}5,{12}5,6,,6pp5[400:149],
,,,,,,,,6,5,,4,
{6}5,{12}3,5,,5,{6}4,{12}4,6,,4pp4[4:1],
,,{6}4qq4[4:1],{12},,,,7,7,,5,
{6}6,{12}4,5,,3,{6}4,{12}4,2,,2,
{4}8-5[8:1]*-6[8:1],8b-2[8:1]*-3[8:1],8bw4[8:1],8b,
{6}2,{12}2,4,,4,{6}5,{12}5,6,,8b,
,,{6}2b,{12},4b,,,5-1[8:1],,,5,
{6}4,{12}2,3,,4-8[8:1],,,4,5,,7,
{4}6,{12}8,,8,{6}3,{12}3,5,,,{6}7,
{12}7,5,,5,{6}4,{12}4,3,,1b,
,,{6}7b,{12},5b,,,4-8[8:1],5,,4,
{6}5,{12}7,6,,5-1[8:1],,,5,4,,2,
{6}3,{12}4,3,,5,{6}4,{12}6,5,,6,
{6}5,{12}5,7,,1,,,5,4,,8,
{1}2b/7b,
E
